Featured TV Shows


Our Cartoon President S02E09

Posted By: Tavaz
1080p (FullHD) / WEBRip IMDb
Our Cartoon President S02E09

Our Cartoon President S02E09
WEBRip | MKV | 1920x1080 | English | H264 @ 3582 kbps | E-AC-3 @ 224 kbps | 28 min 2 s | 764 MiB
Subtitles: English
Genre: Animation, Comedy


A hilarious look into the Trump presidency, animation style. Starring two-dimensional avatars of Donald Trump and his merry band of insiders and family members, this cutting-edge comedy presents the truish adventures of Trump, his confidants and bon vivants through the eyes of an imaginary documentary crew.

our.cartoon.president.s02e09.1080p.web.h264-convoy.mkv (763.7 MB)



General
Unique ID : 21081586332762366748055205725701727712 (0xFDC2A747283E92D6DAF2620A0F4E5E0)
Complete name : ./our.cartoon.president.s02e09.1080p.web.h264-convoy.mkv
Format : Matroska
Format version : Version 4 / Version 2
File size : 764 MiB
Duration : 28 min 2 s
Overall bit rate : 3 808 kb/s
Movie name : Our.Cartoon.President.S02E09.1080p.WEB.h264-CONVOY
Encoded date : UTC 2019-07-08 01:03:47
Writing application : mkvmerge v24.0.0 ('Beyond The Pale') 64-bit
Writing library : libebml v1.3.6 + libmatroska v1.4.9

Video
ID : 1
Format : AVC
Format/Info : Advanced Video Codec
Format profile : High@L4
Format settings : CABAC / 4 Ref Frames
Format settings, CABAC : Yes
Format settings, RefFrames : 4 frames
Codec ID : V_MPEG4/ISO/AVC
Duration : 28 min 2 s
Bit rate : 3 582 kb/s
Width : 1 920 pixels
Height : 1 080 pixels
Display aspect ratio : 16:9
Frame rate mode : Constant
Frame rate : 23.976 (24000/1001) FPS
Color space : YUV
Chroma subsampling : 4:2:0
Bit depth : 8 bits
Scan type : Progressive
Bits/(Pixel*Frame) : 0.072
Stream size : 718 MiB (94%)
Default : Yes
Forced : No
Color range : Limited
Color primaries : BT.709
Transfer characteristics : BT.709
Matrix coefficients : BT.709

Audio
ID : 2
Format : E-AC-3
Format/Info : Enhanced Audio Coding 3
Format settings, Endianness : Big
Codec ID : A_EAC3
Duration : 28 min 2 s
Bit rate mode : Constant
Bit rate : 224 kb/s
Channel(s) : 2 channels
Channel positions : Front: L R
Sampling rate : 48.0 kHz
Frame rate : 187.500 FPS (256 SPF)
Compression mode : Lossy
Delay relative to video : 21 ms
Stream size : 44.9 MiB (6%)
Language : English
Service kind : Complete Main
Default : Yes
Forced : No

Text
ID : 3
Format : UTF-8
Codec ID : S_TEXT/UTF8
Codec ID/Info : UTF-8 Plain Text
Duration : 27 min 40 s
Bit rate : 121 b/s
Count of elements : 692
Stream size : 24.6 KiB (0%)
Title : SDH
Language : English
Default : No
Forced : No





Our Cartoon President S02E09


Our Cartoon President S02E09


Our Cartoon President S02E09


Our Cartoon President S02E09


Our Cartoon President S02E09

All episodes