Featured TV Shows


Our Cartoon President S02E10

Posted By: Tavaz
1080p (FullHD) / WEBRip IMDb
Our Cartoon President S02E10

Our Cartoon President S02E10
WEBRip | MKV | 1920x1080 | English | H264 @ 4239 kbps | E-AC-3 @ 224 kbps | 28 min 35 s | 913 MiB
Subtitles: English
Genre: Animation, Comedy


A hilarious look into the Trump presidency, animation style. Starring two-dimensional avatars of Donald Trump and his merry band of insiders and family members, this cutting-edge comedy presents the truish adventures of Trump, his confidants and bon vivants through the eyes of an imaginary documentary crew.

our.cartoon.president.s02e10.1080p.web.h264-tbs.mkv (913.0 MB)



General
Unique ID : 214702251460823979107636348307915363113 (0xA18626470BC68F5AB093CB0DAA635329)
Complete name : ./our.cartoon.president.s02e10.1080p.web.h264-tbs.mkv
Format : Matroska
Format version : Version 4 / Version 2
File size : 913 MiB
Duration : 28 min 35 s
Overall bit rate : 4 465 kb/s
Encoded date : UTC 2019-07-15 00:11:28
Writing application : mkvmerge v35.0.0 ('All The Love In The World') 64-bit
Writing library : libebml v1.3.9 + libmatroska v1.5.2

Video
ID : 1
Format : AVC
Format/Info : Advanced Video Codec
Format profile : High@L4
Format settings : CABAC / 4 Ref Frames
Format settings, CABAC : Yes
Format settings, RefFrames : 4 frames
Codec ID : V_MPEG4/ISO/AVC
Duration : 28 min 35 s
Bit rate mode : Constant
Bit rate : 4 239 kb/s
Nominal bit rate : 10 000 kb/s
Width : 1 920 pixels
Height : 1 080 pixels
Display aspect ratio : 16:9
Frame rate mode : Constant
Frame rate : 23.976 (24000/1001) FPS
Color space : YUV
Chroma subsampling : 4:2:0
Bit depth : 8 bits
Scan type : Progressive
Bits/(Pixel*Frame) : 0.085
Stream size : 867 MiB (95%)
Language : English
Default : Yes
Forced : No
Color range : Limited
Color primaries : BT.709
Transfer characteristics : BT.709
Matrix coefficients : BT.709

Audio
ID : 2
Format : E-AC-3
Format/Info : Enhanced Audio Coding 3
Format settings, Endianness : Big
Codec ID : A_EAC3
Duration : 28 min 35 s
Bit rate mode : Constant
Bit rate : 224 kb/s
Channel(s) : 2 channels
Channel positions : Front: L R
Sampling rate : 48.0 kHz
Frame rate : 187.500 FPS (256 SPF)
Compression mode : Lossy
Delay relative to video : 18 ms
Stream size : 45.8 MiB (5%)
Language : English
Service kind : Complete Main
Default : Yes
Forced : No

Text
ID : 3
Format : UTF-8
Codec ID : S_TEXT/UTF8
Codec ID/Info : UTF-8 Plain Text
Duration : 28 min 18 s
Bit rate : 122 b/s
Count of elements : 709
Stream size : 25.3 KiB (0%)
Language : English
Default : No
Forced : No





Our Cartoon President S02E10


Our Cartoon President S02E10


Our Cartoon President S02E10


Our Cartoon President S02E10


Our Cartoon President S02E10

All episodes