Index
# A B C D E F G H I J K L M N O P Q R S T U V W Y Z
Tags
Language
Tags

Featured TV Shows


Ozark S02E07

Posted By: Tavaz
SD / WEB-DL IMDb
Ozark S02E07

Ozark S02E07
WEB-DL | MKV | 720x360 | Italian | H264 @ 386 kbps | AAC @ 110 kbps | 59 min 32 s | 212 MiB
Subtitles: Italian
Genre: Crime, Dramma

Un consulente finanziario trascina la famiglia da Chicago in una località turistica dell'Ozark per riciclare 500 milioni di dollari in 5 anni per un boss della droga.

Ozark.2x07.Una.Via.D.Uscita.ITA.WEBMux.x264-NovaRip.mkv (212.1 MB)



General
Unique ID : 13649881865417109179196308234866320144 (0xA44DF22A1D8303D5E82EA59EBBCE310)
Complete name : ./Ozark.2x07.Una.Via.D.Uscita.ITA.WEBMux.x264-NovaRip.mkv
Format : Matroska
Format version : Version 2
File size : 212 MiB
Duration : 59 min 32 s
Overall bit rate : 498 kb/s
Encoded date : UTC 2018-09-01 09:49:12
Writing application : mkvmerge v8.5.2 ('Crosses') 64bit
Writing library : libebml v1.3.3 + libmatroska v1.4.4

Video
ID : 1
Format : AVC
Format/Info : Advanced Video Codec
Format profile : High@L3.1
Format settings : CABAC / 6 Ref Frames
Format settings, CABAC : Yes
Format settings, RefFrames : 6 frames
Codec ID : V_MPEG4/ISO/AVC
Duration : 59 min 25 s
Bit rate : 386 kb/s
Width : 720 pixels
Height : 360 pixels
Display aspect ratio : 2.000
Frame rate mode : Constant
Frame rate : 23.976 (24000/1001) FPS
Color space : YUV
Chroma subsampling : 4:2:0
Bit depth : 8 bits
Scan type : Progressive
Bits/(Pixel*Frame) : 0.062
Stream size : 164 MiB (77%)
Writing library : x264 core 155 r2893 b00bcaf
Encoding settings : cabac=1 / ref=6 / deblock=1:-2:-2 / analyse=0x3:0x133 / me=umh / subme=7 / psy=1 / psy_rd=1.00:0.00 / mixed_ref=1 / me_range=16 / chroma_me=1 / trellis=2 / 8x8dct=1 / cqm=0 / deadzone=21,11 / fast_pskip=0 / chroma_qp_offset=-2 / threads=6 / lookahead_threads=1 / sliced_threads=0 / nr=0 / decimate=1 / interlaced=0 / bluray_compat=0 / constrained_intra=0 / bframes=5 / b_pyramid=2 / b_adapt=2 / b_bias=0 / direct=3 / weightb=1 / open_gop=0 / weightp=2 / keyint=250 / keyint_min=23 / scenecut=40 / intra_refresh=0 / rc_lookahead=40 / rc=crf / mbtree=1 / crf=19.0 / qcomp=0.60 / qpmin=0 / qpmax=69 / qpstep=4 / ip_ratio=1.40 / aq=1:1.00
Language : English
Default : Yes
Forced : Yes

Audio
ID : 2
Format : AAC
Format/Info : Advanced Audio Codec
Format profile : LC
Codec ID : A_AAC-2
Duration : 59 min 32 s
Bit rate : 110 kb/s
Channel(s) : 2 channels
Channel positions : Front: L R
Sampling rate : 48.0 kHz
Frame rate : 46.875 FPS (1024 SPF)
Compression mode : Lossy
Delay relative to video : 9 ms
Stream size : 47.0 MiB (22%)
Title : ITA
Language : Italian
Default : Yes
Forced : Yes

Text
ID : 3
Format : UTF-8
Codec ID : S_TEXT/UTF8
Codec ID/Info : UTF-8 Plain Text
Duration : 58 min 18 s
Bit rate : 1 b/s
Count of elements : 18
Stream size : 569 Bytes (0%)
Title : ITA - Forced
Language : Italian
Default : Yes
Forced : Yes





Ozark S02E07


Ozark S02E07


Ozark S02E07


Ozark S02E07


Ozark S02E07

All episodes