Index
# A B C D E F G H I J K L M N O P Q R S T U V W Y Z
Tags
Language
Tags

Featured TV Shows


Ozark S01E04

Posted By: Tavaz
2160p (4k UHD) / WEBRip IMDb
Ozark S01E04

Ozark S01E04
WEBRip | MKV | 3840x1920 | H264 @ 21036 kbps | AC-3 @ 384 kbps | 58 min 41 s | 8.96 GiB
Genre: Crime, Drama

A financial adviser drags his family from Chicago to the Missouri Ozarks, where he must launder $500 million in five years to appease a drug boss.

Ozark.S01E04.Tonight.We.Improvise.2160p.NF.WEBRip.DD5.1.x264-NTb=b87f38104b3398c54fc337505a7d395e28178e11.part1.rar (4.7 GB)
Ozark.S01E04.Tonight.We.Improvise.2160p.NF.WEBRip.DD5.1.x264-NTb=b87f38104b3398c54fc337505a7d395e28178e11.part2.rar (4.3 GB)



General
Unique ID : 57642044183578447416708962520520714619 (0x2B5D743274851B2CE5F2080E1093E97B)
Complete name : ./9c6f0cc940ae48dcae48d1fd34ddacbd.mkv
Format : Matroska
Format version : Version 4 / Version 2
File size : 8.96 GiB
Duration : 58 min 41 s
Overall bit rate : 21.9 Mb/s
Writing application : Lavf57.56.101
Writing library : Lavf57.56.101
ErrorDetectionType : Per level 1

Video
ID : 1
Format : AVC
Format/Info : Advanced Video Codec
Format profile : High@L5.1
Format settings : CABAC / 6 Ref Frames
Format settings, CABAC : Yes
Format settings, RefFrames : 6 frames
Codec ID : V_MPEG4/ISO/AVC
Duration : 58 min 41 s
Bit rate : 21.0 Mb/s
Width : 3 840 pixels
Height : 1 920 pixels
Display aspect ratio : 2.000
Frame rate mode : Constant
Frame rate : 23.976 (24000/1001) FPS
Color space : YUV
Chroma subsampling : 4:2:0
Bit depth : 8 bits
Scan type : Progressive
Bits/(Pixel*Frame) : 0.119
Stream size : 8.62 GiB (96%)
Writing library : x264 core 144 r2525 40bb568
Encoding settings : cabac=1 / ref=6 / deblock=1:-3:-3 / analyse=0x3:0x133 / me=umh / subme=10 / psy=1 / psy_rd=1.00:0.00 / mixed_ref=1 / me_range=48 / chroma_me=1 / trellis=2 / 8x8dct=1 / cqm=0 / deadzone=21,11 / fast_pskip=0 / chroma_qp_offset=-2 / threads=24 / lookahead_threads=4 / sliced_threads=0 / nr=0 / decimate=0 / interlaced=0 / bluray_compat=0 / constrained_intra=0 / bframes=8 / b_pyramid=2 / b_adapt=2 / b_bias=0 / direct=3 / weightb=1 / open_gop=0 / weightp=2 / keyint=250 / keyint_min=23 / scenecut=40 / intra_refresh=0 / rc=crf / mbtree=0 / crf=20.0 / qcomp=0.60 / qpmin=0 / qpmax=69 / qpstep=4 / ip_ratio=1.30 / pb_ratio=1.20 / aq=3:0.80
Default : Yes
Forced : No

Audio
ID : 2
Format : AC-3
Format/Info : Audio Coding 3
Format settings, Endianness : Big
Codec ID : A_AC3
Duration : 58 min 41 s
Bit rate mode : Constant
Bit rate : 384 kb/s
Channel(s) : 6 channels
Channel positions : Front: L C R, Side: L R, LFE
Sampling rate : 48.0 kHz
Frame rate : 31.250 FPS (1536 SPF)
Bit depth : 16 bits
Compression mode : Lossy
Stream size : 161 MiB (2%)
Service kind : Complete Main
Default : Yes
Forced : No

Text
ID : 3
Format : ASS
Codec ID : S_TEXT/ASS
Codec ID/Info : Advanced Sub Station Alpha
Duration : 58 min 16 s
Compression mode : Lossless
Writing library : Lavc57.64.101 ssa
Default : No
Forced : No





Ozark S01E04


Ozark S01E04


Ozark S01E04


Ozark S01E04


Ozark S01E04

All episodes