Index
# A B C D E F G H I J K L M N O P Q R S T U V W Y Z
Tags
Language
Tags

Featured TV Shows


Ozark S01E08

Posted By: Tavaz
1080p (FullHD) / WEBRip IMDb
Ozark S01E08

Ozark S01E08
WEBRip | MKV | 1920x960 | English | H265 @ 2035 kbps | E-AC-3 @ 384 kbps | 52 min 17 s | 918 MiB
Subtitles: English
Genre: Crime, Drama


A financial adviser drags his family from Chicago to the Missouri Ozarks, where he must launder $500 million in five years to appease a drug boss.

d9207a09306846cfa9e37223654356c5.mkv (917.7 MB)



General
Unique ID : 223034423735403711837268587015120351565 (0xA7CADE167426C6F68880BDAD7EDBF14D)
Complete name : ./d9207a09306846cfa9e37223654356c5.mkv
Format : Matroska
Format version : Version 2
File size : 918 MiB
Duration : 52 min 17 s
Overall bit rate : 2 453 kb/s
Movie name : Ozark.S01E08.1080p.WEBRip.10Bit.DDP5.1.H265-d3g
Encoded date : UTC 2021-08-17 05:35:10
Writing application : DVDFab 12.0.4.3
Writing library : libebml v1.3.4 + libmatroska v1.4.5

Video
ID : 1
Format : HEVC
Format/Info : High Efficiency Video Coding
Format profile : Main 10@L4@Main
Codec ID : V_MPEGH/ISO/HEVC
Duration : 52 min 17 s
Bit rate : 2 036 kb/s
Width : 1 920 pixels
Height : 960 pixels
Display aspect ratio : 2.000
Frame rate mode : Constant
Frame rate : 23.976 (24000/1001) FPS
Color space : YUV
Chroma subsampling : 4:2:0
Bit depth : 10 bits
Bits/(Pixel*Frame) : 0.046
Stream size : 761 MiB (83%)
Default : Yes
Forced : No
Color range : Limited
Color primaries : BT.709
Transfer characteristics : BT.709
Matrix coefficients : BT.709

Audio
ID : 2
Format : E-AC-3
Format/Info : Enhanced Audio Coding 3
Format settings, Endianness : Big
Codec ID : A_EAC3
Duration : 52 min 17 s
Bit rate mode : Constant
Bit rate : 384 kb/s
Channel(s) : 6 channels
Channel positions : Front: L C R, Side: L R, LFE
Sampling rate : 48.0 kHz
Frame rate : 187.500 FPS (256 SPF)
Compression mode : Lossy
Stream size : 144 MiB (16%)
Language : English
Service kind : Complete Main
Default : Yes
Forced : No

Text
ID : 3
Format : PGS
Codec ID : S_HDMV/PGS
Codec ID/Info : Picture based subtitle format used on BDs/HD-DVDs
Duration : 48 min 28 s
Bit rate : 34.1 kb/s
Count of elements : 1656
Stream size : 11.8 MiB (1%)
Language : English
Default : Yes
Forced : No





Ozark S01E08


Ozark S01E08


Ozark S01E08


Ozark S01E08


Ozark S01E08

All episodes