Index
# A B C D E F G H I J K L M N O P Q R S T U V W Y Z
Tags
Language
Tags

Featured TV Shows


Ozark S01E08

Posted By:
720p (HD) / WEB-DL IMDb
Ozark S01E08

Ozark S01E08
WEB-DL | MKV | 1280x720 | English | H264 @ 1594 kbps | AC-3 @ 384 kbps | 52 min 17 s | 755 MiB
Subtitles: German, Italian, Spanish, French, English
Genre: Crime, Drama

A financial adviser drags his family from Chicago to the Missouri Ozarks, where he must launder $500 million in five years to appease a drug boss.

4e5a5194c55a414bad735c3b5c0054cb.mkv (755.1 MB)



General
Complete name : ./4e5a5194c55a414bad735c3b5c0054cb.mkv
Format : Matroska
Format version : Version 4 / Version 2
File size : 755 MiB
Duration : 52 min 17 s
Overall bit rate mode : Variable
Overall bit rate : 2 019 kb/s
Encoded date : UTC 2017-07-21 13:58:09 / UTC 2017-06-14 17:00:17
Writing application : mkvmerge v11.0.0 ('Alive') 64bit
Writing library : libebml v1.3.4 + libmatroska v1.4.5 / Lavf58.0.0

Video
ID : 1
Format : AVC
Format/Info : Advanced Video Codec
Format profile : Main@L3.1
Format settings : CABAC / 3 Ref Frames
Format settings, CABAC : Yes
Format settings, RefFrames : 3 frames
Codec ID : V_MPEG4/ISO/AVC
Duration : 52 min 17 s
Bit rate mode : Variable
Bit rate : 1 595 kb/s
Nominal bit rate : 1 690 kb/s
Maximum bit rate : 2 535 kb/s
Width : 1 280 pixels
Height : 720 pixels
Display aspect ratio : 16:9
Frame rate mode : Constant
Frame rate : 23.976 (24000/1001) FPS
Color space : YUV
Chroma subsampling : 4:2:0
Bit depth : 8 bits
Scan type : Progressive
Bits/(Pixel*Frame) : 0.072
Stream size : 596 MiB (79%)
Writing library : x264 core 118
Encoding settings : cabac=1 / ref=3 / deblock=1:0:0 / analyse=0x1:0x111 / me=umh / subme=10 / psy=1 / psy_rd=1.00:0.00 / mixed_ref=1 / me_range=24 / chroma_me=1 / trellis=2 / 8x8dct=0 / cqm=0 / deadzone=21,11 / fast_pskip=1 / chroma_qp_offset=-2 / threads=8 / sliced_threads=0 / nr=0 / decimate=1 / interlaced=0 / bluray_compat=0 / constrained_intra=0 / bframes=2 / b_pyramid=0 / b_adapt=2 / b_bias=0 / direct=3 / weightb=1 / open_gop=0 / weightp=2 / keyint=48 / keyint_min=25 / scenecut=0 / intra_refresh=0 / rc_lookahead=0 / rc=2pass / mbtree=1 / bitrate=1690 / ratetol=1.0 / qcomp=0.50 / qpmin=6 / qpmax=51 / qpstep=4 / cplxblur=20.0 / qblur=0.5 / vbv_maxrate=2535 / vbv_bufsize=3380 / nal_hrd=vbr / ip_ratio=1.40 / aq=1:1.00
Default : Yes
Forced : No
Statistics Tags Issue : mkvmerge v11.0.0 ('Alive') 64bit 2017-07-21 13:58:09 / mkvmerge v11.0.0 ('Alive') 64bit 2017-07-21 13:58:09 / UTC 2017-06-14 17:00:17
FromStats_BitRate : 1632270
FromStats_Duration : 00:52:17.510000000
FromStats_FrameCount : 75225
FromStats_StreamSize : 640158176

Audio
ID : 2
Format : AC-3
Format/Info : Audio Coding 3
Format settings, Endianness : Big
Codec ID : A_AC3
Duration : 52 min 17 s
Bit rate mode : Constant
Bit rate : 384 kb/s
Channel(s) : 6 channels
Channel positions : Front: L C R, Side: L R, LFE
Sampling rate : 48.0 kHz
Frame rate : 31.250 FPS (1536 SPF)
Bit depth : 16 bits
Compression mode : Lossy
Stream size : 144 MiB (19%)
Language : English
Service kind : Complete Main
Default : Yes
Forced : No
Encoded date : UTC 2017-06-14 17:00:17
Statistics Tags Issue : mkvmerge v11.0.0 ('Alive') 64bit 2017-07-21 13:58:09 / mkvmerge v11.0.0 ('Alive') 64bit 2017-07-21 13:58:09 / UTC 2017-06-14 17:00:17
FromStats_BitRate : 384000
FromStats_Duration : 00:52:17.696000000
FromStats_FrameCount : 98053
FromStats_StreamSize : 150609408

Text #1
ID : 3
Format : UTF-8
Codec ID : S_TEXT/UTF8
Codec ID/Info : UTF-8 Plain Text
Title : English
Language : English
Default : No
Forced : No
Statistics Tags Issue : mkvmerge v11.0.0 ('Alive') 64bit 2017-07-21 13:58:09 / mkvmerge v11.0.0 ('Alive') 64bit 2017-07-21 13:58:09 / UTC 2017-06-14 17:00:17
FromStats_BitRate : 92
FromStats_Duration : 00:48:40.084000000
FromStats_FrameCount : 870
FromStats_StreamSize : 33846

Text #2
ID : 4
Format : UTF-8
Codec ID : S_TEXT/UTF8
Codec ID/Info : UTF-8 Plain Text
Title : Spanish
Language : Spanish
Default : No
Forced : No
Statistics Tags Issue : mkvmerge v11.0.0 ('Alive') 64bit 2017-07-21 13:58:09 / mkvmerge v11.0.0 ('Alive') 64bit 2017-07-21 13:58:09 / UTC 2017-06-14 17:00:17
FromStats_BitRate : 71
FromStats_Duration : 00:51:03.685000000
FromStats_FrameCount : 751
FromStats_StreamSize : 27506

Text #3
ID : 5
Format : UTF-8
Codec ID : S_TEXT/UTF8
Codec ID/Info : UTF-8 Plain Text
Title : French
Language : French
Default : No
Forced : No
Statistics Tags Issue : mkvmerge v11.0.0 ('Alive') 64bit 2017-07-21 13:58:09 / mkvmerge v11.0.0 ('Alive') 64bit 2017-07-21 13:58:09 / UTC 2017-06-14 17:00:17
FromStats_BitRate : 76
FromStats_Duration : 00:51:03.436000000
FromStats_FrameCount : 746
FromStats_StreamSize : 29226

Text #4
ID : 6
Format : UTF-8
Codec ID : S_TEXT/UTF8
Codec ID/Info : UTF-8 Plain Text
Title : German
Language : German
Default : No
Forced : No
Statistics Tags Issue : mkvmerge v11.0.0 ('Alive') 64bit 2017-07-21 13:58:09 / mkvmerge v11.0.0 ('Alive') 64bit 2017-07-21 13:58:09 / UTC 2017-06-14 17:00:17
FromStats_BitRate : 74
FromStats_Duration : 00:51:13.695000000
FromStats_FrameCount : 737
FromStats_StreamSize : 28612

Text #5
ID : 7
Format : UTF-8
Codec ID : S_TEXT/UTF8
Codec ID/Info : UTF-8 Plain Text
Title : Italian
Language : Italian
Default : No
Forced : No
Statistics Tags Issue : mkvmerge v11.0.0 ('Alive') 64bit 2017-07-21 13:58:09 / mkvmerge v11.0.0 ('Alive') 64bit 2017-07-21 13:58:09 / UTC 2017-06-14 17:00:17
FromStats_BitRate : 71
FromStats_Duration : 00:51:03.685000000
FromStats_FrameCount : 779
FromStats_StreamSize : 27348





Ozark S01E08


Ozark S01E08


Ozark S01E08


Ozark S01E08


Ozark S01E08

All episodes