Index
# A B C D E F G H I J K L M N O P Q R S T U V W Y Z
Tags
Language
Tags

Featured TV Shows


PAW Patrol S06E22

Posted By: Tavaz
1080p (FullHD) / WEB-DL IMDb
PAW Patrol S06E22

PAW Patrol S06E22
WEB-DL | MKV | 1920x1080 | Suomi / Svenska / Dansk / English | H264 @ 3723 kbps | AC-3 @ 128 kbps | 22 min 13 s | 694 MiB
Genre: Animation


PAW Patrol is a CG action-adventure for old children and preschool series starring a pack of six heroic puppies led by a tech-savvy 10-year-old boy named Ryder.

PAW.Patrol.S06E22.NORDiC.ENG.1080p.VIAP.WEB-DL.DD2.0.H.264-DKV.mkv (694.1 MB)



General
Unique ID : 239795180009064091741061309694514893488 (0xB466DF2C50392BFB0B49AA70B22D12B0)
Complete name : ./PAW.Patrol.S06E22.NORDiC.ENG.1080p.VIAP.WEB-DL.DD2.0.H.264-DKV.mkv
Format : Matroska
Format version : Version 4 / Version 2
File size : 694 MiB
Duration : 22 min 13 s
Overall bit rate mode : Variable
Overall bit rate : 4 367 kb/s
Encoded date : UTC 2022-03-28 16:56:17
Writing application : mkvmerge v63.0.0 ('Everything') 32-bit
Writing library : libebml v1.4.2 + libmatroska v1.6.4

Video
ID : 1
Format : AVC
Format/Info : Advanced Video Codec
Format profile : High@L4.1
Format settings : CABAC / 3 Ref Frames
Format settings, CABAC : Yes
Format settings, RefFrames : 3 frames
Codec ID : V_MPEG4/ISO/AVC
Duration : 22 min 13 s
Bit rate mode : Variable
Bit rate : 3 724 kb/s
Maximum bit rate : 7 200 kb/s
Width : 1 920 pixels
Height : 1 080 pixels
Display aspect ratio : 16:9
Frame rate mode : Constant
Frame rate : 25.000 FPS
Color space : YUV
Chroma subsampling : 4:2:0
Bit depth : 8 bits
Scan type : Progressive
Bits/(Pixel*Frame) : 0.072
Stream size : 592 MiB (85%)
Default : Yes
Forced : No

Audio #1
ID : 2
Format : AC-3
Format/Info : Audio Coding 3
Format settings, Endianness : Big
Codec ID : A_AC3
Duration : 22 min 13 s
Bit rate mode : Constant
Bit rate : 128 kb/s
Channel(s) : 2 channels
Channel positions : Front: L R
Sampling rate : 48.0 kHz
Frame rate : 31.250 FPS (1536 SPF)
Bit depth : 16 bits
Compression mode : Lossy
Stream size : 20.3 MiB (3%)
Title : Dolby Digital
Language : English
Service kind : Complete Main
Default : Yes
Forced : No

Audio #2
ID : 3
Format : AC-3
Format/Info : Audio Coding 3
Format settings, Endianness : Big
Codec ID : A_AC3
Duration : 22 min 13 s
Bit rate mode : Constant
Bit rate : 128 kb/s
Channel(s) : 2 channels
Channel positions : Front: L R
Sampling rate : 48.0 kHz
Frame rate : 31.250 FPS (1536 SPF)
Bit depth : 16 bits
Compression mode : Lossy
Stream size : 20.3 MiB (3%)
Title : Dolby Digital
Language : Danish
Service kind : Complete Main
Default : Yes
Forced : No

Audio #3
ID : 4
Format : AC-3
Format/Info : Audio Coding 3
Format settings, Endianness : Big
Codec ID : A_AC3
Duration : 22 min 13 s
Bit rate mode : Constant
Bit rate : 128 kb/s
Channel(s) : 2 channels
Channel positions : Front: L R
Sampling rate : 48.0 kHz
Frame rate : 31.250 FPS (1536 SPF)
Bit depth : 16 bits
Compression mode : Lossy
Stream size : 20.3 MiB (3%)
Title : Dolby Digital
Language : Norwegian
Service kind : Complete Main
Default : Yes
Forced : No

Audio #4
ID : 5
Format : AC-3
Format/Info : Audio Coding 3
Format settings, Endianness : Big
Codec ID : A_AC3
Duration : 22 min 13 s
Bit rate mode : Constant
Bit rate : 128 kb/s
Channel(s) : 2 channels
Channel positions : Front: L R
Sampling rate : 48.0 kHz
Frame rate : 31.250 FPS (1536 SPF)
Bit depth : 16 bits
Compression mode : Lossy
Stream size : 20.3 MiB (3%)
Title : Dolby Digital
Language : Swedish
Service kind : Complete Main
Default : Yes
Forced : No

Audio #5
ID : 6
Format : AC-3
Format/Info : Audio Coding 3
Format settings, Endianness : Big
Codec ID : A_AC3
Duration : 22 min 13 s
Bit rate mode : Constant
Bit rate : 128 kb/s
Channel(s) : 2 channels
Channel positions : Front: L R
Sampling rate : 48.0 kHz
Frame rate : 31.250 FPS (1536 SPF)
Bit depth : 16 bits
Compression mode : Lossy
Stream size : 20.3 MiB (3%)
Title : Dolby Digital
Language : Finnish
Service kind : Complete Main
Default : Yes
Forced : No





PAW Patrol S06E22


PAW Patrol S06E22


PAW Patrol S06E22


PAW Patrol S06E22


PAW Patrol S06E22

All episodes