POSE S01E08

Posted By: Tavaz
720p (HD) / WEBRip IMDb
POSE S01E08

POSE S01E08
WEBRip | MKV | 1280x720 | English | H264 @ 4920 kbps | AAC @ 126 kbps | 57 min 27 s | 1.97 GiB
Subtitles: English
Genre: Drama

A dance musical that explores the juxtaposition of several segments of 1980s life and society in New York: the ball culture world, the rise of the luxury Trump-era universe and the downtown social and literary scene.

a586f5d092554deda4bc03b0ced79c6e.mkv (2.0 GB)



General
Unique ID : 92344323617889572232578131808569931840 (0x4578DEAB8A28EAC6217E2E7C3C4A3840)
Complete name : ./a586f5d092554deda4bc03b0ced79c6e.mkv
Format : Matroska
Format version : Version 4 / Version 2
File size : 1.97 GiB
Duration : 57 min 27 s
Overall bit rate : 4 911 kb/s
Encoded date : UTC 2018-07-23 01:54:27
Writing application : mkvmerge v23.0.0 ('The Bride Said No') 64-bit
Writing library : libebml v1.3.6 + libmatroska v1.4.9

Video
ID : 1
Format : AVC
Format/Info : Advanced Video Codec
Format profile : High@L3.1
Format settings : CABAC / 2 Ref Frames
Format settings, CABAC : Yes
Format settings, RefFrames : 2 frames
Codec ID : V_MPEG4/ISO/AVC
Duration : 57 min 27 s
Bit rate : 4 920 kb/s
Width : 1 280 pixels
Height : 720 pixels
Display aspect ratio : 16:9
Frame rate mode : Variable
Frame rate : 30.119 FPS
Original frame rate : 30.000 FPS
Color space : YUV
Chroma subsampling : 4:2:0
Bit depth : 8 bits
Scan type : Progressive
Bits/(Pixel*Frame) : 0.177
Stream size : 1.92 GiB (97%)
Writing library : x264 core 148 r2579M 73ae2d1
Encoding settings : cabac=1 / ref=2 / deblock=1:0:0 / analyse=0x3:0x113 / me=hex / subme=2 / psy=1 / psy_rd=1.00:0.00 / mixed_ref=0 / me_range=16 / chroma_me=1 / trellis=0 / 8x8dct=1 / cqm=0 / deadzone=21,11 / fast_pskip=1 / chroma_qp_offset=0 / threads=1 / lookahead_threads=1 / sliced_threads=0 / nr=250 / decimate=1 / interlaced=0 / bluray_compat=0 / stitchable=1 / constrained_intra=0 / bframes=0 / weightp=1 / keyint=250 / keyint_min=25 / scenecut=40 / intra_refresh=0 / rc_lookahead=10 / rc=2pass / mbtree=1 / bitrate=4920 / ratetol=1.0 / qcomp=0.60 / qpmin=5 / qpmax=69 / qpstep=4 / cplxblur=20.0 / qblur=0.5 / ip_ratio=1.40 / aq=1:1.00
Language : English
Default : Yes
Forced : No

Audio
ID : 2
Format : AAC
Format/Info : Advanced Audio Codec
Format profile : HE-AAC / LC
Format settings : Implicit
Codec ID : A_AAC-2
Duration : 57 min 27 s
Bit rate : 127 kb/s
Channel(s) : 2 channels
Channel positions : Front: L R
Sampling rate : 48.0 kHz / 24.0 kHz
Frame rate : 23.438 FPS (1024 SPF)
Compression mode : Lossy
Delay relative to video : 27 ms
Stream size : 52.1 MiB (3%)
Default : Yes
Forced : No

Text
ID : 3
Format : UTF-8
Codec ID : S_TEXT/UTF8
Codec ID/Info : UTF-8 Plain Text
Duration : 56 min 5 s
Bit rate : 105 b/s
Count of elements : 1048
Stream size : 43.3 KiB (0%)
Language : English
Default : No
Forced : No





POSE S01E08


POSE S01E08


POSE S01E08


POSE S01E08


POSE S01E08

All episodes