Featured TV Shows


Pose S02E10

Posted By: Tavaz
720p (HD) / WEB-DL IMDb
Pose S02E10

Pose S02E10
WEB-DL | MKV | 1280x720 | English | H264 @ 3656 kbps | E-AC-3 @ 640 kbps | 1 h 8 min | 2.07 GiB
Subtitles: English
Genre: Drama


A dance musical that explores the juxtaposition of several segments of 1980s life and society in New York: the ball culture world, the rise of the luxury Trump-era universe and the downtown social and literary scene.

1334d8df53a647c0989ede5ef98cc5ae.mkv (2.1 GB)



General
Unique ID : 26274319602283305833302797933191114784 (0x13C43FF8BA76BA368FEE7193E2983020)
Complete name : ./1334d8df53a647c0989ede5ef98cc5ae.mkv
Format : Matroska
Format version : Version 4 / Version 2
File size : 2.07 GiB
Duration : 1 h 8 min
Overall bit rate : 4 299 kb/s
Encoded date : UTC 2019-08-21 12:03:25
Writing application : mkvmerge v35.0.0 ('All The Love In The World') 64-bit
Writing library : libebml v1.3.9 + libmatroska v1.5.2

Video
ID : 1
Format : AVC
Format/Info : Advanced Video Codec
Format profile : High@L3.1
Format settings : CABAC / 4 Ref Frames
Format settings, CABAC : Yes
Format settings, RefFrames : 4 frames
Codec ID : V_MPEG4/ISO/AVC
Duration : 1 h 8 min
Bit rate mode : Constant
Bit rate : 3 657 kb/s
Nominal bit rate : 6 000 kb/s
Width : 1 280 pixels
Height : 720 pixels
Display aspect ratio : 16:9
Frame rate mode : Constant
Frame rate : 23.976 (24000/1001) FPS
Color space : YUV
Chroma subsampling : 4:2:0
Bit depth : 8 bits
Scan type : Progressive
Bits/(Pixel*Frame) : 0.165
Stream size : 1.76 GiB (85%)
Default : Yes
Forced : No
Color range : Limited
Color primaries : BT.709
Transfer characteristics : BT.709
Matrix coefficients : BT.709

Audio
ID : 2
Format : E-AC-3
Format/Info : Enhanced Audio Coding 3
Format settings, Endianness : Big
Codec ID : A_EAC3
Duration : 1 h 8 min
Bit rate mode : Constant
Bit rate : 640 kb/s
Channel(s) : 6 channels
Channel positions : Front: L C R, Side: L R, LFE
Sampling rate : 48.0 kHz
Frame rate : 187.500 FPS (256 SPF)
Compression mode : Lossy
Stream size : 315 MiB (15%)
Language : English
Service kind : Complete Main
Default : Yes
Forced : No

Text #1
ID : 3
Format : UTF-8
Codec ID : S_TEXT/UTF8
Codec ID/Info : UTF-8 Plain Text
Duration : 1 h 8 min
Bit rate : 86 b/s
Count of elements : 1354
Stream size : 43.5 KiB (0%)
Language : English
Default : No
Forced : No

Text #2
ID : 4
Format : UTF-8
Codec ID : S_TEXT/UTF8
Codec ID/Info : UTF-8 Plain Text
Duration : 1 h 8 min
Bit rate : 86 b/s
Count of elements : 1361
Stream size : 43.5 KiB (0%)
Title : SDH
Language : English
Default : No
Forced : No





Pose S02E10


Pose S02E10


Pose S02E10


Pose S02E10


Pose S02E10

All episodes