Featured TV Shows


Primal S01E05

Posted By: Tavaz
1080p (FullHD) / WEB-DL IMDb
Primal S01E05

Primal S01E05
WEB-DL | MKV | 1920x1080 | English | H264 @ 4847 kbps | E-AC-3 @ 640 kbps | 22 min 28 s | 883 MiB
Subtitles: English
Genre: Animation


A caveman forms a bond with a dinosaur as they struggle to survive in a hostile world.

a7f49c96fd3d42aaabf67118091134ca.mkv (882.5 MB)



General
Unique ID : 174541907583108217457441658351536946008 (0x834F8C7370B166C881987644CE95BB58)
Complete name : ./a7f49c96fd3d42aaabf67118091134ca.mkv
Format : Matroska
Format version : Version 4 / Version 2
File size : 883 MiB
Duration : 22 min 28 s
Overall bit rate : 5 490 kb/s
Encoded date : UTC 2019-10-12 15:43:18
Writing application : mkvmerge v37.0.0 ('Leave It') 64-bit
Writing library : libebml v1.3.9 + libmatroska v1.5.2

Video
ID : 1
Format : AVC
Format/Info : Advanced Video Codec
Format profile : High@L4
Format settings : CABAC / 4 Ref Frames
Format settings, CABAC : Yes
Format settings, RefFrames : 4 frames
Codec ID : V_MPEG4/ISO/AVC
Duration : 22 min 28 s
Bit rate mode : Constant
Bit rate : 4 848 kb/s
Nominal bit rate : 10 000 kb/s
Width : 1 920 pixels
Height : 1 080 pixels
Display aspect ratio : 16:9
Frame rate mode : Constant
Frame rate : 23.976 (24000/1001) FPS
Color space : YUV
Chroma subsampling : 4:2:0
Bit depth : 8 bits
Scan type : Progressive
Bits/(Pixel*Frame) : 0.098
Stream size : 779 MiB (88%)
Default : Yes
Forced : No
Color range : Limited
Color primaries : BT.709
Transfer characteristics : BT.709
Matrix coefficients : BT.709

Audio
ID : 2
Format : E-AC-3
Format/Info : Enhanced Audio Coding 3
Format settings, Endianness : Big
Codec ID : A_EAC3
Duration : 22 min 28 s
Bit rate mode : Constant
Bit rate : 640 kb/s
Channel(s) : 6 channels
Channel positions : Front: L C R, Side: L R, LFE
Sampling rate : 48.0 kHz
Frame rate : 187.500 FPS (256 SPF)
Compression mode : Lossy
Stream size : 103 MiB (12%)
Language : English
Service kind : Complete Main
Default : Yes
Forced : No

Text
ID : 3
Format : UTF-8
Codec ID : S_TEXT/UTF8
Codec ID/Info : UTF-8 Plain Text
Duration : 22 min 19 s
Bit rate : 11 b/s
Count of elements : 203
Stream size : 1.92 KiB (0%)
Title : SDH
Language : English
Default : No
Forced : No





Primal S01E05


Primal S01E05


Primal S01E05


Primal S01E05


Primal S01E05

All episodes