Prison Break S05E09

Posted By: Tavaz
720p (HD) / HDTV IMDb
Prison Break S05E09

Prison Break S05E09
HDTV | MKV | 1280x716 | English | H264 @ 3007 kbps | MPEG Audio @ 256 kbps | 41 min 31 s | 989 MiB
Genre: Crime, Drama

Due to a political conspiracy, an innocent man is sent to death row and his only hope is his brother, who makes it his mission to deliberately get himself sent to the same prison in order to break the both of them out, from the inside out.

Prison.Break.S05E03.FRENCH.720p.HDTV.x264-SH0W-WwW.Zone-Telechargement.Ws.mkv (810.9 MB)
Prison.Break.S05E01.FRENCH.720p.HDTV.x264-SH0W-WwW.Zone-Telechargement.Ws.mkv (915.9 MB)
Prison.Break.S05E06.FRENCH.720p.HDTV.x264-SH0W.WwW.Zone-Telechargement.Ws.mkv (960.3 MB)
Prison.Break.S05E08.FRENCH.720p.HDTV.x264-SH0W.WwW.Zone-Telechargement.Ws.mkv (856.0 MB)
Prison.Break.S05E02.FRENCH.720p.HDTV.x264-SH0W-WwW.Zone-Telechargement.Ws.mkv (867.3 MB)
Prison.Break.S05E09.FiNAL.FRENCH.720p.HDTV.x264-SH0W.WwW.Zone-Telechargement.Ws.mkv (774.4 MB)
Prison.Break.S05E04.FRENCH.720p.HDTV.x264-SH0W.WwW.Zone-Telechargement.Ws.mkv (989.1 MB)
Prison.Break.S05E05.FRENCH.720p.HDTV.x264-SH0W.WwW.Zone-Telechargement.Ws.mkv (784.2 MB)
Prison.Break.S05E07.FRENCH.720p.HDTV.x264-SH0W.WwW.Zone-Telechargement.Ws.mkv (721.6 MB)



General
Complete name : ./Prison.Break.S05E04.FRENCH.720p.HDTV.x264-SH0W.WwW.Zone-Telechargement.Ws.mkv
Format : Matroska
Format version : Version 2
File size : 989 MiB
Duration : 41 min 31 s
Overall bit rate : 3 330 kb/s
Writing application : x264.exe
Writing library : mkv2rls x264-tv version built on 2016.10.12

Video
ID : 1
Format : AVC
Format/Info : Advanced Video Codec
Format profile : High@L4.1
Format settings : CABAC / 5 Ref Frames
Format settings, CABAC : Yes
Format settings, RefFrames : 5 frames
Codec ID : V_MPEG4/ISO/AVC
Duration : 41 min 31 s
Bit rate : 3 007 kb/s
Width : 1 280 pixels
Height : 716 pixels
Display aspect ratio : 16:9
Frame rate mode : Constant
Frame rate : 25.000 FPS
Color space : YUV
Chroma subsampling : 4:2:0
Bit depth : 8 bits
Scan type : Progressive
Bits/(Pixel*Frame) : 0.131
Stream size : 893 MiB (90%)
Writing library : x264 core 150 r2833 df79067
Encoding settings : cabac=1 / ref=5 / deblock=1:0:0 / analyse=0x3:0x113 / me=hex / subme=8 / psy=1 / psy_rd=1.00:0.00 / mixed_ref=1 / me_range=16 / chroma_me=1 / trellis=2 / 8x8dct=1 / cqm=0 / deadzone=21,11 / fast_pskip=1 / chroma_qp_offset=-2 / threads=18 / lookahead_threads=3 / sliced_threads=0 / nr=0 / decimate=1 / interlaced=0 / bluray_compat=0 / constrained_intra=0 / bframes=3 / b_pyramid=2 / b_adapt=1 / b_bias=0 / direct=3 / weightb=1 / open_gop=0 / weightp=2 / keyint=250 / keyint_min=25 / scenecut=40 / intra_refresh=0 / rc_lookahead=50 / rc=crf / mbtree=1 / crf=18.0 / qcomp=0.60 / qpmin=0 / qpmax=69 / qpstep=4 / ip_ratio=1.40 / aq=1:1.00
Language : English
Default : Yes
Forced : No
Color range : Limited
Matrix coefficients : BT.709

Audio
ID : 2
Format : MPEG Audio
Format version : Version 1
Format profile : Layer 2
Codec ID : A_MPEG/L2
Codec ID/Hint : MP2
Duration : 41 min 31 s
Bit rate mode : Constant
Bit rate : 256 kb/s
Channel(s) : 2 channels
Sampling rate : 48.0 kHz
Compression mode : Lossy
Stream size : 76.0 MiB (8%)
Language : English
Default : Yes
Forced : No





Prison Break S05E09


Prison Break S05E09


Prison Break S05E09


Prison Break S05E09


Prison Break S05E09

All episodes