Featured TV Shows


Boardwalk Empire S02E02

Posted By: Tavaz
720p (HD) / WEB-DL IMDb
Boardwalk Empire S02E02

Boardwalk Empire S02E02
WEB-DL | MKV | 1280x720 | English | H264 @ 4061 kbps | AC-3 @ 384 kbps | 44 min 4 s | 1.37 GiB
Subtitles: English
Genre: Crime, Drama

Boardwalk Empire is a period drama focusing on Enoch "Nucky" Thompson (based on the historical Enoch L. Johnson), a political figure who rose to prominence and controlled Atlantic City, New Jersey, during the Prohibition period of the 1920s and 1930s. Nucky interacts with several historical figures in both his personal and political life, including mobsters, politicians, government agents, and the common folk who look up to him. The federal government also takes an interest in the bootlegging and other illegal activities in the area, sending agents to investigate possible mob connections but also looking at Nucky's lifestyle—expensive and lavish for a county political figure.

Primetime Emmy Award-winning screenwriter and producer Terence Winter adapted the show from Boardwalk Empire: The Birth, High Times, and Corruption of Atlantic City, a book by Nelson Johnson about historical criminal kingpin Enoch L. Johnson.

d8893c4e972c4bccb8686a90bdcd0aa8.mkv (1.4 GB)



General
Unique ID : 205406427098143194146623736685262627713 (0x9A87D6C04D3AE9018738FF1091BD6381)
Complete name : ./d8893c4e972c4bccb8686a90bdcd0aa8.mkv
Format : Matroska
Format version : Version 4 / Version 2
File size : 1.37 GiB
Duration : 44 min 4 s
Overall bit rate : 4 447 kb/s
Encoded date : UTC 2017-07-10 17:05:13
Writing application : mkvmerge v10.0.0 ('To Drown In You') 64bit
Writing library : libebml v1.3.4 + libmatroska v1.4.5

Video
ID : 1
Format : AVC
Format/Info : Advanced Video Codec
Format profile : High@L3.1
Format settings : 2 Ref Frames
Format settings, CABAC : No
Format settings, RefFrames : 2 frames
Codec ID : V_MPEG4/ISO/AVC
Duration : 44 min 4 s
Bit rate : 4 061 kb/s
Width : 1 280 pixels
Height : 720 pixels
Display aspect ratio : 16:9
Frame rate mode : Constant
Frame rate : 23.976 (23976/1000) FPS
Color space : YUV
Chroma subsampling : 4:2:0
Bit depth : 8 bits
Scan type : Progressive
Bits/(Pixel*Frame) : 0.184
Stream size : 1.25 GiB (91%)
Language : English
Default : Yes
Forced : No
Color range : Limited
Color primaries : BT.709
Transfer characteristics : BT.709
Matrix coefficients : BT.709

Audio
ID : 2
Format : AC-3
Format/Info : Audio Coding 3
Format settings, Endianness : Big
Codec ID : A_AC3
Duration : 44 min 4 s
Bit rate mode : Constant
Bit rate : 384 kb/s
Channel(s) : 6 channels
Channel positions : Front: L C R, Side: L R, LFE
Sampling rate : 48.0 kHz
Frame rate : 31.250 FPS (1536 SPF)
Bit depth : 16 bits
Compression mode : Lossy
Delay relative to video : -42 ms
Stream size : 121 MiB (9%)
Language : English
Service kind : Complete Main
Default : Yes
Forced : No

Text
ID : 3
Format : UTF-8
Codec ID : S_TEXT/UTF8
Codec ID/Info : UTF-8 Plain Text
Duration : 43 min 57 s
Bit rate : 130 b/s
Count of elements : 888
Stream size : 42.1 KiB (0%)
Language : English
Default : No
Forced : No





Boardwalk Empire S02E02


Boardwalk Empire S02E02


Boardwalk Empire S02E02


Boardwalk Empire S02E02


Boardwalk Empire S02E02

All episodes