Featured TV Shows


Innocent S01E02

Posted By: Tavaz
1080p (FullHD) / HDTV IMDb
Innocent S01E02

Innocent S01E02
HDTV | MKV | 1920x1080 | French / English | H264 @ 3525 kbps | AC-3 @ 192 kbps | 42 min 0 s | 1.15 GiB
Subtitles: French
Genre: Crime, Drama, Mystery


After seven years in prison, David Collins is acquitted of the murder of his wife. Now, he must fight to rebuild his shattered life while police search for the real murderer.

0f4dd8e64642432b95f0f7dfc69267f6.mkv (1.1 GB)



General
Unique ID : 130823918248332658959003463648037834097 (0x626BC5292EDB062E48B6F836B9C80D71)
Complete name : ./0f4dd8e64642432b95f0f7dfc69267f6.mkv
Format : Matroska
Format version : Version 4 / Version 2
File size : 1.15 GiB
Duration : 42 min 0 s
Overall bit rate : 3 912 kb/s
Encoded date : UTC 2020-01-14 21:41:13
Writing application : mkvmerge v42.0.0 ('Overtime') 64-bit
Writing library : libebml v1.3.10 + libmatroska v1.5.2

Video
ID : 1
Format : AVC
Format/Info : Advanced Video Codec
Format profile : High@L4
Format settings : CABAC / 4 Ref Frames
Format settings, CABAC : Yes
Format settings, RefFrames : 4 frames
Codec ID : V_MPEG4/ISO/AVC
Duration : 42 min 0 s
Bit rate : 3 525 kb/s
Width : 1 920 pixels
Height : 1 080 pixels
Display aspect ratio : 16:9
Frame rate mode : Constant
Frame rate : 25.000 FPS
Standard : Component
Color space : YUV
Chroma subsampling : 4:2:0
Bit depth : 8 bits
Scan type : MBAFF
Scan type, store method : Interleaved fields
Scan order : Top Field First
Bits/(Pixel*Frame) : 0.068
Stream size : 1.03 GiB (90%)
Default : No
Forced : No
Color range : Limited
Color primaries : BT.709
Transfer characteristics : BT.709
Matrix coefficients : BT.709

Audio #1
ID : 2
Format : AC-3
Format/Info : Audio Coding 3
Format settings, Endianness : Big
Codec ID : A_AC3
Duration : 42 min 0 s
Bit rate mode : Constant
Bit rate : 192 kb/s
Channel(s) : 2 channels
Channel positions : Front: L R
Sampling rate : 48.0 kHz
Frame rate : 31.250 FPS (1536 SPF)
Bit depth : 16 bits
Compression mode : Lossy
Stream size : 57.7 MiB (5%)
Title : French
Language : French
Service kind : Complete Main
Default : Yes
Forced : No

Audio #2
ID : 3
Format : AC-3
Format/Info : Audio Coding 3
Format settings, Endianness : Big
Codec ID : A_AC3
Duration : 42 min 0 s
Bit rate mode : Constant
Bit rate : 192 kb/s
Channel(s) : 2 channels
Channel positions : Front: L R
Sampling rate : 48.0 kHz
Frame rate : 31.250 FPS (1536 SPF)
Bit depth : 16 bits
Compression mode : Lossy
Stream size : 57.7 MiB (5%)
Title : English
Language : English
Service kind : Complete Main
Default : No
Forced : No

Text
ID : 4
Format : UTF-8
Codec ID : S_TEXT/UTF8
Codec ID/Info : UTF-8 Plain Text
Duration : 41 min 44 s
Bit rate : 80 b/s
Count of elements : 772
Stream size : 24.7 KiB (0%)
Title : French
Language : French
Default : No
Forced : No





Innocent S01E02


Innocent S01E02


Innocent S01E02


Innocent S01E02


Innocent S01E02

All episodes