Featured TV Shows


QI S15E14

Posted By: Tavaz
1080p (FullHD) / WEB-DL IMDb
QI S15E14

QI S15E14
WEB-DL | MKV | 1920x1080 | English | H264 @ 11928 kbps | E-AC-3 @ 224 kbps | 29 min 24 s | 2.50 GiB
Subtitles: English
Genre: Comedy

QI is a British comedy panel game television quiz show created and co-produced by John Lloyd, hosted by Stephen Fry, and featuring permanent panellist Alan Davies. Most of the questions are extremely obscure, making it unlikely that the correct answer will be given. To compensate, points are also awarded for interesting answers, regardless of whether they are right or even relate to the original question. Points are also deducted from a panellist who gives answers which are wrong, pathetically obvious, or obviously a joke. The show makes use of a loud siren and flashing lights, as a form of humiliation.

9fc40bbb73624ae2a1d6dcd077c03eb5.mkv (2.5 GB)



General
Unique ID : 148196852020010860574633972196953315424 (0x6F7DACED5DD6FAFB03713C734A985860)
Complete name : ./9fc40bbb73624ae2a1d6dcd077c03eb5.mkv
Format : Matroska
Format version : Version 4 / Version 2
File size : 2.50 GiB
Duration : 29 min 24 s
Overall bit rate mode : Variable
Overall bit rate : 12.2 Mb/s
Encoded date : UTC 2018-02-03 12:53:40
Writing application : mkvmerge v8.8.0 ('Wind at my back') 64bit
Writing library : libebml v1.3.3 + libmatroska v1.4.4

Video
ID : 1
Format : AVC
Format/Info : Advanced Video Codec
Format profile : High@L4
Format settings : CABAC / 4 Ref Frames
Format settings, CABAC : Yes
Format settings, RefFrames : 4 frames
Codec ID : V_MPEG4/ISO/AVC
Duration : 29 min 24 s
Bit rate mode : Variable
Bit rate : 11.9 Mb/s
Maximum bit rate : 15.0 Mb/s
Width : 1 920 pixels
Height : 1 080 pixels
Display aspect ratio : 16:9
Frame rate mode : Constant
Frame rate : 25.000 FPS
Color space : YUV
Chroma subsampling : 4:2:0
Bit depth : 8 bits
Scan type : Progressive
Bits/(Pixel*Frame) : 0.230
Stream size : 2.45 GiB (98%)
Default : Yes
Forced : No
Color range : Limited
Color primaries : BT.709
Transfer characteristics : BT.709
Matrix coefficients : BT.709

Audio
ID : 2
Format : E-AC-3
Format/Info : Enhanced Audio Coding 3
Format settings, Endianness : Big
Codec ID : A_EAC3
Duration : 29 min 24 s
Bit rate mode : Constant
Bit rate : 224 kb/s
Channel(s) : 2 channels
Channel positions : Front: L R
Sampling rate : 48.0 kHz
Frame rate : 187.500 FPS (256 SPF)
Compression mode : Lossy
Stream size : 47.1 MiB (2%)
Language : English
Service kind : Complete Main
Default : Yes
Forced : No

Text #1
ID : 3
Format : UTF-8
Codec ID : S_TEXT/UTF8
Codec ID/Info : UTF-8 Plain Text
Duration : 28 min 33 s
Bit rate : 128 b/s
Count of elements : 692
Stream size : 26.8 KiB (0%)
Language : English
Default : No
Forced : No

Text #2
ID : 4
Format : UTF-8
Codec ID : S_TEXT/UTF8
Codec ID/Info : UTF-8 Plain Text
Duration : 28 min 33 s
Bit rate : 128 b/s
Count of elements : 692
Stream size : 26.9 KiB (0%)
Title : SDH
Language : English
Default : No
Forced : No





QI S15E14


QI S15E14


QI S15E14


QI S15E14


QI S15E14

All episodes