Index
# A B C D E F G H I J K L M N O P Q R S T U V W Y Z
Tags
Language
Tags

Featured TV Shows


Queen S01E01

Posted By: Tavaz
1080p (FullHD) / WEBRip IMDb
Queen S01E01

Queen S01E01
WEBRip | MKV | 1920x1080 | Polski | H264 @ 3456 kbps | E-AC-3 @ 768 kbps | 54 min 28 s | 1.61 GiB
Subtitles: ภาษาไทย, Hrvatski, Français, tiếng Việt, Español, Magyar, 日本語, עברית, 한국어, Русский, Ελληνικά, Nederlands, Dansk, Bahasa Indonesia, Bokmål, 中文, Suomi, Polski, Türkçe, English, Română, العربية, Deutsch, Українська, Svenska, Italiano, Português, Čeština
Genre: Drama


After a decades-long absence, a renowned Parisian tailor and drag queen returns to his hometown in Poland to make amends with his daughter.

fa0ba1a3e92d4143b33e394c3a9b506c.mkv (1.6 GB)



General
Unique ID : 52728361276610983199401396265185076658 (0x27AB1CECEB786ADB1453971FC1A265B2)
Complete name : ./fa0ba1a3e92d4143b33e394c3a9b506c.mkv
Format : Matroska
Format version : Version 4 / Version 2
File size : 1.61 GiB
Duration : 54 min 28 s
Overall bit rate mode : Variable
Overall bit rate : 4 230 kb/s
Writing application : mkvmerge v67.0.0 ('Under Stars') 64-bit
Writing library : libebml v1.4.2 + libmatroska v1.6.4

Video
ID : 1
Format : AVC
Format/Info : Advanced Video Codec
Format profile : Main@L4
Format settings : CABAC / 3 Ref Frames
Format settings, CABAC : Yes
Format settings, RefFrames : 3 frames
Codec ID : V_MPEG4/ISO/AVC
Duration : 54 min 28 s
Bit rate mode : Variable
Bit rate : 3 457 kb/s
Nominal bit rate : 4 053 kb/s
Maximum bit rate : 8 040 kb/s
Width : 1 920 pixels
Height : 1 080 pixels
Display aspect ratio : 16:9
Frame rate mode : Constant
Frame rate : 25.000 FPS
Color space : YUV
Chroma subsampling : 4:2:0
Bit depth : 8 bits
Scan type : Progressive
Bits/(Pixel*Frame) : 0.067
Stream size : 1.32 GiB (82%)
Writing library : x264 core 148 r2727 7d026e8
Encoding settings : cabac=1 / ref=3 / deblock=1:0:0 / analyse=0x1:0x111 / me=umh / subme=10 / psy=1 / psy_rd=1.00:0.00 / mixed_ref=1 / me_range=24 / chroma_me=1 / trellis=2 / 8x8dct=0 / cqm=0 / deadzone=21,11 / fast_pskip=1 / chroma_qp_offset=-2 / threads=6 / lookahead_threads=1 / sliced_threads=0 / nr=0 / decimate=1 / interlaced=0 / bluray_compat=0 / stitchable=1 / constrained_intra=0 / bframes=2 / b_pyramid=0 / b_adapt=2 / b_bias=0 / direct=3 / weightb=1 / open_gop=0 / weightp=2 / keyint=250 / keyint_min=25 / scenecut=0 / intra_refresh=0 / rc_lookahead=50 / rc=2pass / mbtree=1 / bitrate=4053 / ratetol=1.0 / qcomp=0.50 / qpmin=6 / qpmax=51 / qpstep=4 / cplxblur=20.0 / qblur=0.5 / vbv_maxrate=8040 / vbv_bufsize=10720 / nal_hrd=vbr / filler=0 / ip_ratio=1.40 / aq=1:1.00
Language : Polish
Default : Yes
Forced : No

Audio
ID : 2
Format : E-AC-3
Format/Info : Enhanced Audio Coding 3
Format profile : E-AC-3+Atmos / E-AC-3
Format settings, Endianness : Big
Codec ID : A_EAC3
Duration : 54 min 28 s
Bit rate mode : Constant
Bit rate : 768 kb/s
Channel(s) : 15 objects / 6 channels
Channel positions : 15 objects / Front: L C R, Side: L R, LFE
Sampling rate : 48.0 kHz
Frame rate : 187.500 FPS (256 SPF)
Compression mode : Lossy
Stream size : 299 MiB (18%)
Language : Polish
Service kind : Complete Main
Default : Yes
Forced : No

Text #1
ID : 3
Format : UTF-8
Codec ID : S_TEXT/UTF8
Codec ID/Info : UTF-8 Plain Text
Duration : 47 min 26 s
Bit rate : 44 b/s
Count of elements : 488
Stream size : 15.5 KiB (0%)
Title : English (forced)
Language : English
Default : Yes
Forced : Yes

Text #2
ID : 4
Format : UTF-8
Codec ID : S_TEXT/UTF8
Codec ID/Info : UTF-8 Plain Text
Duration : 48 min 5 s
Bit rate : 60 b/s
Count of elements : 653
Stream size : 21.2 KiB (0%)
Title : English (SDH)
Language : English
Default : No
Forced : No

Text #3
ID : 5
Format : UTF-8
Codec ID : S_TEXT/UTF8
Codec ID/Info : UTF-8 Plain Text
Duration : 51 min 20 s
Bit rate : 17 b/s
Count of elements : 189
Stream size : 6.44 KiB (0%)
Title : Polish (forced)
Language : Polish
Default : No
Forced : No

Text #4
ID : 6
Format : UTF-8
Codec ID : S_TEXT/UTF8
Codec ID/Info : UTF-8 Plain Text
Duration : 47 min 55 s
Bit rate : 52 b/s
Count of elements : 540
Stream size : 18.4 KiB (0%)
Title : Polish (SDH)
Language : Polish
Default : No
Forced : No

Text #5
ID : 7
Format : UTF-8
Codec ID : S_TEXT/UTF8
Codec ID/Info : UTF-8 Plain Text
Duration : 52 min 41 s
Bit rate : 61 b/s
Count of elements : 478
Stream size : 23.6 KiB (0%)
Title : Arabic
Language : Arabic
Default : No
Forced : No

Text #6
ID : 8
Format : UTF-8
Codec ID : S_TEXT/UTF8
Codec ID/Info : UTF-8 Plain Text
Duration : 52 min 41 s
Bit rate : 34 b/s
Count of elements : 454
Stream size : 13.4 KiB (0%)
Title : Czech
Language : Czech
Default : No
Forced : No

Text #7
ID : 9
Format : UTF-8
Codec ID : S_TEXT/UTF8
Codec ID/Info : UTF-8 Plain Text
Duration : 52 min 41 s
Bit rate : 35 b/s
Count of elements : 432
Stream size : 13.7 KiB (0%)
Title : Danish
Language : Danish
Default : No
Forced : No

Text #8
ID : 10
Format : UTF-8
Codec ID : S_TEXT/UTF8
Codec ID/Info : UTF-8 Plain Text
Duration : 52 min 48 s
Bit rate : 38 b/s
Count of elements : 464
Stream size : 14.7 KiB (0%)
Title : German
Language : German
Default : No
Forced : No

Text #9
ID : 11
Format : UTF-8
Codec ID : S_TEXT/UTF8
Codec ID/Info : UTF-8 Plain Text
Duration : 52 min 41 s
Bit rate : 63 b/s
Count of elements : 476
Stream size : 24.4 KiB (0%)
Title : Greek
Language : Greek
Default : No
Forced : No

Text #10
ID : 12
Format : UTF-8
Codec ID : S_TEXT/UTF8
Codec ID/Info : UTF-8 Plain Text
Duration : 52 min 41 s
Bit rate : 36 b/s
Count of elements : 456
Stream size : 13.9 KiB (0%)
Title : Spanish
Language : Spanish
Default : No
Forced : No

Text #11
ID : 13
Format : UTF-8
Codec ID : S_TEXT/UTF8
Codec ID/Info : UTF-8 Plain Text
Duration : 52 min 41 s
Bit rate : 35 b/s
Count of elements : 470
Stream size : 13.9 KiB (0%)
Title : European Spanish
Language : Spanish
Default : No
Forced : No

Text #12
ID : 14
Format : UTF-8
Codec ID : S_TEXT/UTF8
Codec ID/Info : UTF-8 Plain Text
Duration : 52 min 41 s
Bit rate : 30 b/s
Count of elements : 462
Stream size : 11.9 KiB (0%)
Title : Finnish
Language : Finnish
Default : No
Forced : No

Text #13
ID : 15
Format : UTF-8
Codec ID : S_TEXT/UTF8
Codec ID/Info : UTF-8 Plain Text
Duration : 52 min 41 s
Bit rate : 16 b/s
Count of elements : 226
Stream size : 6.56 KiB (0%)
Title : French
Language : French
Default : No
Forced : No

Text #14
ID : 16
Format : UTF-8
Codec ID : S_TEXT/UTF8
Codec ID/Info : UTF-8 Plain Text
Duration : 52 min 41 s
Bit rate : 55 b/s
Count of elements : 471
Stream size : 21.6 KiB (0%)
Title : Hebrew
Language : Hebrew
Default : No
Forced : No

Text #15
ID : 17
Format : UTF-8
Codec ID : S_TEXT/UTF8
Codec ID/Info : UTF-8 Plain Text
Duration : 52 min 41 s
Bit rate : 33 b/s
Count of elements : 463
Stream size : 12.9 KiB (0%)
Title : Croatian
Language : Croatian
Default : No
Forced : No

Text #16
ID : 18
Format : UTF-8
Codec ID : S_TEXT/UTF8
Codec ID/Info : UTF-8 Plain Text
Duration : 52 min 41 s
Bit rate : 35 b/s
Count of elements : 462
Stream size : 13.8 KiB (0%)
Title : Hungarian
Language : Hungarian
Default : No
Forced : No

Text #17
ID : 19
Format : UTF-8
Codec ID : S_TEXT/UTF8
Codec ID/Info : UTF-8 Plain Text
Duration : 52 min 38 s
Bit rate : 36 b/s
Count of elements : 459
Stream size : 14.1 KiB (0%)
Title : Indonesian
Language : Indonesian
Default : No
Forced : No

Text #18
ID : 20
Format : UTF-8
Codec ID : S_TEXT/UTF8
Codec ID/Info : UTF-8 Plain Text
Duration : 52 min 41 s
Bit rate : 36 b/s
Count of elements : 452
Stream size : 14.0 KiB (0%)
Title : Italian
Language : Italian
Default : No
Forced : No

Text #19
ID : 21
Format : UTF-8
Codec ID : S_TEXT/UTF8
Codec ID/Info : UTF-8 Plain Text
Duration : 52 min 41 s
Bit rate : 35 b/s
Count of elements : 522
Stream size : 13.6 KiB (0%)
Title : Japanese
Language : Japanese
Default : No
Forced : No

Text #20
ID : 22
Format : UTF-8
Codec ID : S_TEXT/UTF8
Codec ID/Info : UTF-8 Plain Text
Duration : 52 min 41 s
Bit rate : 39 b/s
Count of elements : 468
Stream size : 15.2 KiB (0%)
Title : Korean
Language : Korean
Default : No
Forced : No

Text #21
ID : 23
Format : UTF-8
Codec ID : S_TEXT/UTF8
Codec ID/Info : UTF-8 Plain Text
Duration : 52 min 41 s
Bit rate : 34 b/s
Count of elements : 460
Stream size : 13.4 KiB (0%)
Title : Malay
Language : Malay
Default : No
Forced : No

Text #22
ID : 24
Format : UTF-8
Codec ID : S_TEXT/UTF8
Codec ID/Info : UTF-8 Plain Text
Duration : 52 min 41 s
Bit rate : 36 b/s
Count of elements : 365
Stream size : 13.9 KiB (0%)
Title : Norwegian
Language : Norwegian Bokmal
Default : No
Forced : No

Text #23
ID : 25
Format : UTF-8
Codec ID : S_TEXT/UTF8
Codec ID/Info : UTF-8 Plain Text
Duration : 52 min 41 s
Bit rate : 32 b/s
Count of elements : 456
Stream size : 12.6 KiB (0%)
Title : Dutch
Language : Dutch
Default : No
Forced : No

Text #24
ID : 26
Format : UTF-8
Codec ID : S_TEXT/UTF8
Codec ID/Info : UTF-8 Plain Text
Duration : 52 min 41 s
Bit rate : 35 b/s
Count of elements : 479
Stream size : 13.6 KiB (0%)
Title : Brazilian Portuguese
Language : Portuguese
Default : No
Forced : No

Text #25
ID : 27
Format : UTF-8
Codec ID : S_TEXT/UTF8
Codec ID/Info : UTF-8 Plain Text
Duration : 52 min 41 s
Bit rate : 34 b/s
Count of elements : 461
Stream size : 13.4 KiB (0%)
Title : Portuguese
Language : Portuguese
Default : No
Forced : No

Text #26
ID : 28
Format : UTF-8
Codec ID : S_TEXT/UTF8
Codec ID/Info : UTF-8 Plain Text
Duration : 52 min 41 s
Bit rate : 35 b/s
Count of elements : 451
Stream size : 13.7 KiB (0%)
Title : Romanian
Language : Romanian
Default : No
Forced : No

Text #27
ID : 29
Format : UTF-8
Codec ID : S_TEXT/UTF8
Codec ID/Info : UTF-8 Plain Text
Duration : 52 min 41 s
Bit rate : 60 b/s
Count of elements : 469
Stream size : 23.3 KiB (0%)
Title : Russian
Language : Russian
Default : No
Forced : No

Text #28
ID : 30
Format : UTF-8
Codec ID : S_TEXT/UTF8
Codec ID/Info : UTF-8 Plain Text
Duration : 52 min 44 s
Bit rate : 34 b/s
Count of elements : 449
Stream size : 13.2 KiB (0%)
Title : Swedish
Language : Swedish
Default : No
Forced : No

Text #29
ID : 31
Format : UTF-8
Codec ID : S_TEXT/UTF8
Codec ID/Info : UTF-8 Plain Text
Duration : 52 min 41 s
Bit rate : 89 b/s
Count of elements : 469
Stream size : 34.5 KiB (0%)
Title : Thai
Language : Thai
Default : No
Forced : No

Text #30
ID : 32
Format : UTF-8
Codec ID : S_TEXT/UTF8
Codec ID/Info : UTF-8 Plain Text
Duration : 52 min 41 s
Bit rate : 33 b/s
Count of elements : 386
Stream size : 12.9 KiB (0%)
Title : Turkish
Language : Turkish
Default : No
Forced : No

Text #31
ID : 33
Format : UTF-8
Codec ID : S_TEXT/UTF8
Codec ID/Info : UTF-8 Plain Text
Duration : 52 min 41 s
Bit rate : 56 b/s
Count of elements : 468
Stream size : 21.9 KiB (0%)
Title : Ukrainian
Language : Ukrainian
Default : No
Forced : No

Text #32
ID : 34
Format : UTF-8
Codec ID : S_TEXT/UTF8
Codec ID/Info : UTF-8 Plain Text
Duration : 52 min 41 s
Bit rate : 46 b/s
Count of elements : 470
Stream size : 18.0 KiB (0%)
Title : Vietnamese
Language : Vietnamese
Default : No
Forced : No

Text #33
ID : 35
Format : UTF-8
Codec ID : S_TEXT/UTF8
Codec ID/Info : UTF-8 Plain Text
Duration : 52 min 41 s
Bit rate : 34 b/s
Count of elements : 508
Stream size : 13.2 KiB (0%)
Title : Traditional Chinese
Language : Chinese
Default : No
Forced : No

Text #34
ID : 36
Format : UTF-8
Codec ID : S_TEXT/UTF8
Codec ID/Info : UTF-8 Plain Text
Duration : 52 min 41 s
Bit rate : 35 b/s
Count of elements : 466
Stream size : 13.7 KiB (0%)
Title : Simplified Chinese
Language : Chinese
Default : No
Forced : No





Queen S01E01


Queen S01E01


Queen S01E01


Queen S01E01


Queen S01E01

All episodes