Featured TV Shows


Queen Sugar S04E03

Posted By: Tavaz
1080p (FullHD) / WEBRip IMDb
Queen Sugar S04E03

Queen Sugar S04E03
WEBRip | MKV | 1920x1080 | English | H264 @ 9896 kbps | E-AC-3 @ 640 kbps | 42 min 36 s | 3.14 GiB
Subtitles: English
Genre: Drama


The series follows the life of two sisters, Nova Bordelon and Charley Bordelon, who, with her teenage son Micah moves to the heart of Louisiana to claim an inheritance from her recently departed father - an 800-acre sugarcane farm.

ceae40e1c0d048f39fbb998b232a0422.mkv (3.1 GB)



General
Unique ID : 297018596338265872663883609415549350885 (0xDF73B36C65E73A30071D9360C3FE73E5)
Complete name : ./ceae40e1c0d048f39fbb998b232a0422.mkv
Format : Matroska
Format version : Version 4 / Version 2
File size : 3.14 GiB
Duration : 42 min 36 s
Overall bit rate : 10.5 Mb/s
Encoded date : UTC 2019-06-27 07:11:34
Writing application : mkvmerge v33.1.0 ('Primrose') 64-bit
Writing library : libebml v1.3.7 + libmatroska v1.5.0

Video
ID : 1
Format : AVC
Format/Info : Advanced Video Codec
Format profile : High@L4
Format settings : CABAC / 4 Ref Frames
Format settings, CABAC : Yes
Format settings, RefFrames : 4 frames
Codec ID : V_MPEG4/ISO/AVC
Duration : 42 min 36 s
Bit rate : 9 897 kb/s
Width : 1 920 pixels
Height : 1 080 pixels
Display aspect ratio : 16:9
Frame rate mode : Constant
Frame rate : 23.976 (24000/1001) FPS
Color space : YUV
Chroma subsampling : 4:2:0
Bit depth : 8 bits
Scan type : Progressive
Bits/(Pixel*Frame) : 0.199
Stream size : 2.95 GiB (94%)
Language : English
Default : Yes
Forced : No
Color range : Limited
Color primaries : BT.709
Transfer characteristics : BT.709
Matrix coefficients : BT.709

Audio
ID : 2
Format : E-AC-3
Format/Info : Enhanced Audio Coding 3
Format settings, Endianness : Big
Codec ID : A_EAC3
Duration : 42 min 36 s
Bit rate mode : Constant
Bit rate : 640 kb/s
Channel(s) : 6 channels
Channel positions : Front: L C R, Side: L R, LFE
Sampling rate : 48.0 kHz
Frame rate : 187.500 FPS (256 SPF)
Compression mode : Lossy
Stream size : 195 MiB (6%)
Language : English
Service kind : Complete Main
Default : Yes
Forced : No

Text
ID : 3
Format : UTF-8
Codec ID : S_TEXT/UTF8
Codec ID/Info : UTF-8 Plain Text
Duration : 42 min 5 s
Bit rate : 76 b/s
Count of elements : 793
Stream size : 23.6 KiB (0%)
Language : English
Default : No
Forced : No





Queen Sugar S04E03


Queen Sugar S04E03


Queen Sugar S04E03


Queen Sugar S04E03


Queen Sugar S04E03

All episodes