Index
# A B C D E F G H I J K L M N O P Q R S T U V W X Y Z
Tags
Language
Tags
July 2024
Su Mo Tu We Th Fr Sa
30 1 2 3 4 5 6
7 8 9 10 11 12 13
14 15 16 17 18 19 20
21 22 23 24 25 26 27
28 29 30 31 1 2 3

Featured TV Shows


Queenie S01E08

Posted By: Tavaz
2160p (4k UHD) / WEBRip IMDb
Queenie S01E08

Queenie S01E08
WEBRip | MKV | 3840x2160 | English | H265 @ 14746 kbps | E-AC-3 @ 256.0 kbps | 25 min 24 s | 2.72 GiB
Subtitles: English, Español
Genre: Drama, Comedy


Queenie Jenkins is a 25-year-old Jamaican British woman living in south London, straddling two cultures and slotting neatly into neither. After a messy breakup with her long-term boyfriend, Queenie seeks comfort in all the wrong places and begins to realize she has to face the past head-on before she can rebuild.

Queenie.2024.S01E08.DV.HDR.2160p.WEB.H265-SuccessfulCrab.mkv (2.7 GB)



General
Unique ID : 337087007025001939624597014364189851839 (0xFD989897FFEFD8F21B66E8D450F780BF)
Complete name : ./Queenie.2024.S01E08.DV.HDR.2160p.WEB.H265-SuccessfulCrab.mkv
Format : Matroska
Format version : Version 4
File size : 2.72 GiB
Duration : 25 min 24 s
Overall bit rate : 15.3 Mb/s
Writing application : mkvmerge v82.0 ('I'm The President') 64-bit
Writing library : libebml v1.4.5 + libmatroska v1.7.1

Video
ID : 1
Format : HEVC
Format/Info : High Efficiency Video Coding
Format profile : Main 10@L5.1@Main
HDR format : Dolby Vision, Version 1.0, dvhe.08.06, BL+RPU, HDR10 compatible / SMPTE ST 2094 App 4, Version 1, HDR10+ Profile A compatible
Codec ID : V_MPEGH/ISO/HEVC
Duration : 25 min 24 s
Bit rate : 14.7 Mb/s
Width : 3 840 pixels
Height : 2 160 pixels
Display aspect ratio : 16:9
Frame rate mode : Constant
Frame rate : 23.976 (24000/1001) FPS
Color space : YUV
Chroma subsampling : 4:2:0 (Type 2)
Bit depth : 10 bits
Bits/(Pixel*Frame) : 0.074
Stream size : 2.62 GiB (96%)
Default : Yes
Forced : No
Color range : Limited
Color primaries : BT.2020
Transfer characteristics : PQ
Matrix coefficients : BT.2020 non-constant
Mastering display color primaries : Display P3
Mastering display luminance : min: 0.0001 cd/m2, max: 1000 cd/m2
Maximum Content Light Level : 304 cd/m2
Maximum Frame-Average Light Level : 126 cd/m2

Audio
ID : 2
Format : E-AC-3
Format/Info : Enhanced AC-3
Commercial name : Dolby Digital Plus
Codec ID : A_EAC3
Duration : 25 min 24 s
Bit rate mode : Constant
Bit rate : 256 kb/s
Channel(s) : 6 channels
Channel layout : L R C LFE Ls Rs
Sampling rate : 48.0 kHz
Frame rate : 31.250 FPS (1536 SPF)
Compression mode : Lossy
Stream size : 46.5 MiB (2%)
Language : English
Service kind : Complete Main
Default : Yes
Forced : No

Text #1
ID : 3
Format : UTF-8
Codec ID : S_TEXT/UTF8
Codec ID/Info : UTF-8 Plain Text
Title : English [SDH]
Language : English
Default : No
Forced : No

Text #2
ID : 4
Format : UTF-8
Codec ID : S_TEXT/UTF8
Codec ID/Info : UTF-8 Plain Text
Title : Spanish [SDH]
Language : Spanish
Default : No
Forced : No





Queenie S01E08


Queenie S01E08


Queenie S01E08


Queenie S01E08


Queenie S01E08

All episodes