Featured TV Shows


Ragnarok S01

Posted By: MegoNecia
1080p (FullHD) / WEB-DL IMDb
Ragnarok S01

Ragnarok S01
WEB-DL | MKV | 1920x1080 | Bokmål | H264 @ 7175 kbps | E-AC-3 @ 640 kbps | 45 min 48 s | 6 x 2.50 GiB
Subtitles: English, العربية, Dansk, Deutsch, Ελληνικά, Español, Suomi, Français, עברית, Bahasa Indonesia, Italiano, Bokmål, Bokmål, Nederlands, Nederlands, Polski, Português, Português, Svenska, Türkçe, Ελληνικά, Русский, Čeština, 中文, 日本語, ภาษาไทย, tiếng Việt, Magyar, Română, 한국어
Genre: Drama

A small Norwegian town experiencing warm winters and violent downpours seems to be headed for another Ragnarök – unless someone intervenes in time.

d63d7beb1424bcbda349e755676ec49f.mkv (2.5 GB)



General
Unique ID : 233096453703196976489135794808265348967 (0xAF5CBE778DC4EE61E229E637B9039767)
Complete name : ./d63d7beb1424bcbda349e755676ec49f.mkv
Format : Matroska
Format version : Version 4 / Version 2
File size : 2.50 GiB
Duration : 45 min 48 s
Overall bit rate mode : Variable
Overall bit rate : 7 816 kb/s
Encoded date : UTC 2020-01-31 08:31:26
Writing application : mkvmerge v43.0.0 ('The Quartermaster') 64-bit
Writing library : libebml v1.3.10 + libmatroska v1.5.2

Video
ID : 1
Format : AVC
Format/Info : Advanced Video Codec
Format profile : High@L4
Format settings : CABAC / 4 Ref Frames
Format settings, CABAC : Yes
Format settings, RefFrames : 4 frames
Codec ID : V_MPEG4/ISO/AVC
Duration : 45 min 46 s
Bit rate mode : Variable
Bit rate : 7 175 kb/s
Maximum bit rate : 20.0 Mb/s
Width : 1 920 pixels
Height : 1 080 pixels
Display aspect ratio : 16:9
Frame rate mode : Constant
Frame rate : 24.000 FPS
Color space : YUV
Chroma subsampling : 4:2:0
Bit depth : 8 bits
Scan type : Progressive
Bits/(Pixel*Frame) : 0.144
Stream size : 2.29 GiB (92%)
Writing library : x264 core 148 r2717 0d2410d
Encoding settings : cabac=1 / ref=4 / deblock=1:0:0 / analyse=0x3:0x111 / me=umh / subme=10 / psy=1 / psy_rd=1.00:0.00 / mixed_ref=1 / me_range=120 / chroma_me=1 / trellis=2 / 8x8dct=1 / cqm=0 / deadzone=21,11 / fast_pskip=1 / chroma_qp_offset=-2 / threads=8 / lookahead_threads=2 / sliced_threads=0 / nr=0 / decimate=1 / interlaced=0 / bluray_compat=0 / stitchable=1 / constrained_intra=0 / bframes=16 / b_pyramid=2 / b_adapt=2 / b_bias=0 / direct=3 / weightb=1 / open_gop=0 / weightp=2 / keyint=240 / keyint_min=121 / scenecut=0 / intra_refresh=0 / rc_lookahead=240 / rc=crf / mbtree=1 / crf=16.0 / qcomp=0.50 / qpmin=6 / qpmax=51 / qpstep=4 / vbv_maxrate=20000 / vbv_bufsize=25000 / crf_max=0.0 / nal_hrd=vbr / filler=0 / ip_ratio=1.40 / aq=1:0.80
Default : Yes
Forced : No

Audio
ID : 2
Format : E-AC-3
Format/Info : Enhanced Audio Coding 3
Format settings, Endianness : Big
Codec ID : A_EAC3
Duration : 45 min 48 s
Bit rate mode : Constant
Bit rate : 640 kb/s
Channel(s) : 6 channels
Channel positions : Front: L C R, Side: L R, LFE
Sampling rate : 48.0 kHz
Frame rate : 187.500 FPS (256 SPF)
Compression mode : Lossy
Stream size : 210 MiB (8%)
Title : Norwegian
Language : Norwegian Bokmal
Service kind : Complete Main
Default : Yes
Forced : No

Text #1
ID : 3
Format : UTF-8
Codec ID : S_TEXT/UTF8
Codec ID/Info : UTF-8 Plain Text
Duration : 22 min 0 s
Bit rate : 3 b/s
Count of elements : 12
Stream size : 519 Bytes (0%)
Title : Forced
Language : Norwegian Bokmal
Default : Yes
Forced : Yes

Text #2
ID : 4
Format : UTF-8
Codec ID : S_TEXT/UTF8
Codec ID/Info : UTF-8 Plain Text
Duration : 43 min 55 s
Bit rate : 61 b/s
Count of elements : 622
Stream size : 19.7 KiB (0%)
Title : SDH
Language : English
Default : No
Forced : No

Text #3
ID : 5
Format : UTF-8
Codec ID : S_TEXT/UTF8
Codec ID/Info : UTF-8 Plain Text
Duration : 42 min 24 s
Bit rate : 51 b/s
Count of elements : 441
Stream size : 16.0 KiB (0%)
Language : English
Default : No
Forced : No

Text #4
ID : 6
Format : UTF-8
Codec ID : S_TEXT/UTF8
Codec ID/Info : UTF-8 Plain Text
Duration : 42 min 24 s
Bit rate : 83 b/s
Count of elements : 455
Stream size : 26.0 KiB (0%)
Language : Arabic
Default : No
Forced : No

Text #5
ID : 7
Format : UTF-8
Codec ID : S_TEXT/UTF8
Codec ID/Info : UTF-8 Plain Text
Duration : 42 min 24 s
Bit rate : 42 b/s
Count of elements : 446
Stream size : 13.3 KiB (0%)
Language : Czech
Default : No
Forced : No

Text #6
ID : 8
Format : UTF-8
Codec ID : S_TEXT/UTF8
Codec ID/Info : UTF-8 Plain Text
Duration : 42 min 14 s
Bit rate : 48 b/s
Count of elements : 451
Stream size : 14.9 KiB (0%)
Language : Danish
Default : No
Forced : No

Text #7
ID : 9
Format : UTF-8
Codec ID : S_TEXT/UTF8
Codec ID/Info : UTF-8 Plain Text
Duration : 42 min 24 s
Bit rate : 45 b/s
Count of elements : 429
Stream size : 14.3 KiB (0%)
Language : German
Default : No
Forced : No

Text #8
ID : 10
Format : UTF-8
Codec ID : S_TEXT/UTF8
Codec ID/Info : UTF-8 Plain Text
Duration : 42 min 24 s
Bit rate : 86 b/s
Count of elements : 453
Stream size : 26.8 KiB (0%)
Language : Greek
Default : No
Forced : No

Text #9
ID : 11
Format : UTF-8
Codec ID : S_TEXT/UTF8
Codec ID/Info : UTF-8 Plain Text
Duration : 42 min 24 s
Bit rate : 46 b/s
Count of elements : 447
Stream size : 14.6 KiB (0%)
Language : Spanish
Default : No
Forced : No

Text #10
ID : 12
Format : UTF-8
Codec ID : S_TEXT/UTF8
Codec ID/Info : UTF-8 Plain Text
Duration : 42 min 24 s
Bit rate : 46 b/s
Count of elements : 438
Stream size : 14.5 KiB (0%)
Title : European
Language : Spanish
Default : No
Forced : No

Text #11
ID : 13
Format : UTF-8
Codec ID : S_TEXT/UTF8
Codec ID/Info : UTF-8 Plain Text
Duration : 42 min 24 s
Bit rate : 47 b/s
Count of elements : 451
Stream size : 14.7 KiB (0%)
Language : Finnish
Default : No
Forced : No

Text #12
ID : 14
Format : UTF-8
Codec ID : S_TEXT/UTF8
Codec ID/Info : UTF-8 Plain Text
Duration : 42 min 24 s
Bit rate : 48 b/s
Count of elements : 446
Stream size : 15.0 KiB (0%)
Language : French
Default : No
Forced : No

Text #13
ID : 15
Format : UTF-8
Codec ID : S_TEXT/UTF8
Codec ID/Info : UTF-8 Plain Text
Duration : 42 min 24 s
Bit rate : 68 b/s
Count of elements : 463
Stream size : 21.4 KiB (0%)
Language : Hebrew
Default : No
Forced : No

Text #14
ID : 16
Format : UTF-8
Codec ID : S_TEXT/UTF8
Codec ID/Info : UTF-8 Plain Text
Duration : 42 min 24 s
Bit rate : 46 b/s
Count of elements : 402
Stream size : 14.4 KiB (0%)
Language : Hungarian
Default : No
Forced : No

Text #15
ID : 17
Format : UTF-8
Codec ID : S_TEXT/UTF8
Codec ID/Info : UTF-8 Plain Text
Duration : 42 min 24 s
Bit rate : 48 b/s
Count of elements : 455
Stream size : 14.9 KiB (0%)
Language : Indonesian
Default : No
Forced : No

Text #16
ID : 18
Format : UTF-8
Codec ID : S_TEXT/UTF8
Codec ID/Info : UTF-8 Plain Text
Duration : 42 min 24 s
Bit rate : 50 b/s
Count of elements : 455
Stream size : 15.8 KiB (0%)
Language : Italian
Default : No
Forced : No

Text #17
ID : 19
Format : UTF-8
Codec ID : S_TEXT/UTF8
Codec ID/Info : UTF-8 Plain Text
Duration : 42 min 24 s
Bit rate : 44 b/s
Count of elements : 433
Stream size : 13.9 KiB (0%)
Language : Japanese
Default : No
Forced : No

Text #18
ID : 20
Format : UTF-8
Codec ID : S_TEXT/UTF8
Codec ID/Info : UTF-8 Plain Text
Duration : 42 min 24 s
Bit rate : 61 b/s
Count of elements : 474
Stream size : 19.0 KiB (0%)
Language : Korean
Default : No
Forced : No

Text #19
ID : 21
Format : UTF-8
Codec ID : S_TEXT/UTF8
Codec ID/Info : UTF-8 Plain Text
Duration : 41 min 21 s
Bit rate : 52 b/s
Count of elements : 435
Stream size : 16.0 KiB (0%)
Language : Norwegian Bokmal
Default : No
Forced : No

Text #20
ID : 22
Format : UTF-8
Codec ID : S_TEXT/UTF8
Codec ID/Info : UTF-8 Plain Text
Duration : 42 min 52 s
Bit rate : 57 b/s
Count of elements : 511
Stream size : 18.1 KiB (0%)
Title : SDH
Language : Norwegian Bokmal
Default : No
Forced : No

Text #21
ID : 23
Format : UTF-8
Codec ID : S_TEXT/UTF8
Codec ID/Info : UTF-8 Plain Text
Duration : 42 min 24 s
Bit rate : 47 b/s
Count of elements : 427
Stream size : 14.7 KiB (0%)
Language : Dutch
Default : No
Forced : No

Text #22
ID : 24
Format : UTF-8
Codec ID : S_TEXT/UTF8
Codec ID/Info : UTF-8 Plain Text
Duration : 42 min 24 s
Bit rate : 40 b/s
Count of elements : 447
Stream size : 12.6 KiB (0%)
Language : Polish
Default : No
Forced : No

Text #23
ID : 25
Format : UTF-8
Codec ID : S_TEXT/UTF8
Codec ID/Info : UTF-8 Plain Text
Duration : 42 min 24 s
Bit rate : 50 b/s
Count of elements : 453
Stream size : 15.6 KiB (0%)
Language : Portuguese
Default : No
Forced : No

Text #24
ID : 26
Format : UTF-8
Codec ID : S_TEXT/UTF8
Codec ID/Info : UTF-8 Plain Text
Duration : 42 min 24 s
Bit rate : 48 b/s
Count of elements : 458
Stream size : 14.9 KiB (0%)
Title : Brazilian
Language : Portuguese
Default : No
Forced : No

Text #25
ID : 27
Format : UTF-8
Codec ID : S_TEXT/UTF8
Codec ID/Info : UTF-8 Plain Text
Duration : 42 min 24 s
Bit rate : 52 b/s
Count of elements : 406
Stream size : 16.2 KiB (0%)
Language : Romanian
Default : No
Forced : No

Text #26
ID : 28
Format : UTF-8
Codec ID : S_TEXT/UTF8
Codec ID/Info : UTF-8 Plain Text
Duration : 42 min 24 s
Bit rate : 78 b/s
Count of elements : 438
Stream size : 24.3 KiB (0%)
Language : Russian
Default : No
Forced : No

Text #27
ID : 29
Format : UTF-8
Codec ID : S_TEXT/UTF8
Codec ID/Info : UTF-8 Plain Text
Duration : 42 min 24 s
Bit rate : 45 b/s
Count of elements : 410
Stream size : 14.3 KiB (0%)
Language : Swedish
Default : No
Forced : No

Text #28
ID : 30
Format : UTF-8
Codec ID : S_TEXT/UTF8
Codec ID/Info : UTF-8 Plain Text
Duration : 42 min 24 s
Bit rate : 119 b/s
Count of elements : 485
Stream size : 37.1 KiB (0%)
Language : Thai
Default : No
Forced : No

Text #29
ID : 31
Format : UTF-8
Codec ID : S_TEXT/UTF8
Codec ID/Info : UTF-8 Plain Text
Duration : 42 min 24 s
Bit rate : 50 b/s
Count of elements : 455
Stream size : 15.7 KiB (0%)
Language : Turkish
Default : No
Forced : No

Text #30
ID : 32
Format : UTF-8
Codec ID : S_TEXT/UTF8
Codec ID/Info : UTF-8 Plain Text
Duration : 42 min 24 s
Bit rate : 72 b/s
Count of elements : 454
Stream size : 22.5 KiB (0%)
Language : Vietnamese
Default : No
Forced : No

Text #31
ID : 33
Format : UTF-8
Codec ID : S_TEXT/UTF8
Codec ID/Info : UTF-8 Plain Text
Duration : 42 min 24 s
Bit rate : 54 b/s
Count of elements : 456
Stream size : 16.9 KiB (0%)
Title : Simplified
Language : Chinese
Default : No
Forced : No

Text #32
ID : 34
Format : UTF-8
Codec ID : S_TEXT/UTF8
Codec ID/Info : UTF-8 Plain Text
Duration : 42 min 24 s
Bit rate : 48 b/s
Count of elements : 455
Stream size : 15.0 KiB (0%)
Title : Traditional
Language : Chinese
Default : No
Forced : No





Ragnarok S01


Ragnarok S01


Ragnarok S01


Ragnarok S01


Ragnarok S01

All episodes