Featured TV Shows


Rapture S01E08

Posted By: Tavaz
720p (HD) / WEB-DL IMDb
Rapture S01E08

Rapture S01E08
WEB-DL | MKV | 1280x720 | English | H264 @ 1100 kbps | AC-3 @ 384 kbps | 54 min 26 s | 574 MiB
Subtitles: Swedish, Danish, Portuguese, Dutch, Norwegian Bokmal, Finnish, Hebrew, German, Romanian, English, Japanese, French, Greek, Turkish, Spanish, Polish, Arabic, Chinese, Korean, Thai, Italian
Genre: Documentary

Groundbreaking artists share their life stories in this vibrant documentary series that captures hip-hop's impact on global culture.

Rapture.S01E08.A.BOOGIE.WIT.DA.HOODIE.Uptown.Baby.720p.NF.WEB-DL.DD5.1.x264-NTG.mkv (574.3 MB)



General
Unique ID : 143080830364990232058252041673589935467 (0x6BA45D95C8B476640026CEB0C2944D6B)
Complete name : ./Rapture.S01E08.A.BOOGIE.WIT.DA.HOODIE.Uptown.Baby.720p.NF.WEB-DL.DD5.1.x264-NTG.mkv
Format : Matroska
Format version : Version 4 / Version 2
File size : 574 MiB
Duration : 54 min 26 s
Overall bit rate mode : Variable
Overall bit rate : 1 475 kb/s
Encoded date : UTC 2018-03-30 07:47:36
Writing application : mkvmerge v21.0.0 ('Tardigrades Will Inherit The Earth') 64-bit
Writing library : libebml v1.3.5 + libmatroska v1.4.8

Video
ID : 1
Format : AVC
Format/Info : Advanced Video Codec
Format profile : Main@L3.1
Format settings : CABAC / 3 Ref Frames
Format settings, CABAC : Yes
Format settings, RefFrames : 3 frames
Codec ID : V_MPEG4/ISO/AVC
Duration : 54 min 26 s
Bit rate mode : Variable
Bit rate : 1 100 kb/s
Maximum bit rate : 1 650 kb/s
Width : 1 280 pixels
Height : 720 pixels
Display aspect ratio : 16:9
Frame rate mode : Constant
Frame rate : 23.976 (24000/1001) FPS
Color space : YUV
Chroma subsampling : 4:2:0
Bit depth : 8 bits
Scan type : Progressive
Bits/(Pixel*Frame) : 0.050
Stream size : 422 MiB (74%)
Writing library : x264 core 148 r2715 7e75228
Encoding settings : cabac=1 / ref=3 / deblock=1:0:0 / analyse=0x1:0x111 / me=umh / subme=10 / psy=1 / psy_rd=1.00:0.00 / mixed_ref=1 / me_range=24 / chroma_me=1 / trellis=2 / 8x8dct=0 / cqm=0 / deadzone=21,11 / fast_pskip=1 / chroma_qp_offset=-2 / threads=8 / lookahead_threads=1 / sliced_threads=0 / nr=0 / decimate=1 / interlaced=0 / bluray_compat=0 / stitchable=1 / constrained_intra=0 / bframes=2 / b_pyramid=0 / b_adapt=2 / b_bias=0 / direct=3 / weightb=1 / open_gop=0 / weightp=2 / keyint=48 / keyint_min=25 / scenecut=0 / intra_refresh=0 / rc_lookahead=48 / rc=2pass / mbtree=1 / bitrate=1100 / ratetol=1.0 / qcomp=0.50 / qpmin=6 / qpmax=51 / qpstep=4 / cplxblur=20.0 / qblur=0.5 / vbv_maxrate=1650 / vbv_bufsize=2200 / nal_hrd=vbr / filler=0 / ip_ratio=1.40 / aq=1:1.00
Default : Yes
Forced : No

Audio
ID : 2
Format : AC-3
Format/Info : Audio Coding 3
Format settings, Endianness : Big
Codec ID : A_AC3
Duration : 54 min 26 s
Bit rate mode : Constant
Bit rate : 384 kb/s
Channel(s) : 6 channels
Channel positions : Front: L C R, Side: L R, LFE
Sampling rate : 48.0 kHz
Frame rate : 31.250 FPS (1536 SPF)
Bit depth : 16 bits
Compression mode : Lossy
Stream size : 150 MiB (26%)
Title : English
Language : English
Service kind : Complete Main
Default : Yes
Forced : No

Text #1
ID : 3
Format : UTF-8
Codec ID : S_TEXT/UTF8
Codec ID/Info : UTF-8 Plain Text
Duration : 16 s 433 ms
Bit rate : 83 b/s
Count of elements : 4
Stream size : 172 Bytes (0%)
Title : Forced
Language : English
Default : Yes
Forced : Yes

Text #2
ID : 4
Format : UTF-8
Codec ID : S_TEXT/UTF8
Codec ID/Info : UTF-8 Plain Text
Duration : 53 min 15 s
Bit rate : 104 b/s
Count of elements : 902
Stream size : 40.7 KiB (0%)
Language : English
Default : No
Forced : No

Text #3
ID : 5
Format : UTF-8
Codec ID : S_TEXT/UTF8
Codec ID/Info : UTF-8 Plain Text
Duration : 53 min 19 s
Bit rate : 108 b/s
Count of elements : 922
Stream size : 42.5 KiB (0%)
Title : SDH
Language : English
Default : No
Forced : No

Text #4
ID : 6
Format : UTF-8
Codec ID : S_TEXT/UTF8
Codec ID/Info : UTF-8 Plain Text
Duration : 52 min 47 s
Bit rate : 164 b/s
Count of elements : 929
Stream size : 63.4 KiB (0%)
Language : Arabic
Default : No
Forced : No

Text #5
ID : 7
Format : UTF-8
Codec ID : S_TEXT/UTF8
Codec ID/Info : UTF-8 Plain Text
Duration : 52 min 47 s
Bit rate : 88 b/s
Count of elements : 906
Stream size : 34.0 KiB (0%)
Language : Danish
Default : No
Forced : No

Text #6
ID : 8
Format : UTF-8
Codec ID : S_TEXT/UTF8
Codec ID/Info : UTF-8 Plain Text
Duration : 52 min 47 s
Bit rate : 89 b/s
Count of elements : 886
Stream size : 34.7 KiB (0%)
Language : German
Default : No
Forced : No

Text #7
ID : 9
Format : UTF-8
Codec ID : S_TEXT/UTF8
Codec ID/Info : UTF-8 Plain Text
Duration : 52 min 47 s
Bit rate : 148 b/s
Count of elements : 924
Stream size : 57.6 KiB (0%)
Language : Greek
Default : No
Forced : No

Text #8
ID : 10
Format : UTF-8
Codec ID : S_TEXT/UTF8
Codec ID/Info : UTF-8 Plain Text
Duration : 52 min 47 s
Bit rate : 87 b/s
Count of elements : 920
Stream size : 33.7 KiB (0%)
Language : Spanish
Default : No
Forced : No

Text #9
ID : 11
Format : UTF-8
Codec ID : S_TEXT/UTF8
Codec ID/Info : UTF-8 Plain Text
Duration : 52 min 47 s
Bit rate : 80 b/s
Count of elements : 923
Stream size : 31.0 KiB (0%)
Title : European
Language : Spanish
Default : No
Forced : No

Text #10
ID : 12
Format : UTF-8
Codec ID : S_TEXT/UTF8
Codec ID/Info : UTF-8 Plain Text
Duration : 52 min 47 s
Bit rate : 83 b/s
Count of elements : 892
Stream size : 32.2 KiB (0%)
Language : Finnish
Default : No
Forced : No

Text #11
ID : 13
Format : UTF-8
Codec ID : S_TEXT/UTF8
Codec ID/Info : UTF-8 Plain Text
Duration : 52 min 47 s
Bit rate : 80 b/s
Count of elements : 909
Stream size : 31.2 KiB (0%)
Language : French
Default : No
Forced : No

Text #12
ID : 14
Format : UTF-8
Codec ID : S_TEXT/UTF8
Codec ID/Info : UTF-8 Plain Text
Duration : 52 min 47 s
Bit rate : 139 b/s
Count of elements : 931
Stream size : 54.0 KiB (0%)
Language : Hebrew
Default : No
Forced : No

Text #13
ID : 15
Format : UTF-8
Codec ID : S_TEXT/UTF8
Codec ID/Info : UTF-8 Plain Text
Duration : 52 min 47 s
Bit rate : 77 b/s
Count of elements : 903
Stream size : 30.1 KiB (0%)
Language : Italian
Default : No
Forced : No

Text #14
ID : 16
Format : UTF-8
Codec ID : S_TEXT/UTF8
Codec ID/Info : UTF-8 Plain Text
Duration : 52 min 47 s
Bit rate : 96 b/s
Count of elements : 891
Stream size : 37.4 KiB (0%)
Language : Japanese
Default : No
Forced : No

Text #15
ID : 17
Format : UTF-8
Codec ID : S_TEXT/UTF8
Codec ID/Info : UTF-8 Plain Text
Duration : 52 min 47 s
Bit rate : 92 b/s
Count of elements : 933
Stream size : 35.9 KiB (0%)
Language : Korean
Default : No
Forced : No

Text #16
ID : 18
Format : UTF-8
Codec ID : S_TEXT/UTF8
Codec ID/Info : UTF-8 Plain Text
Duration : 52 min 47 s
Bit rate : 74 b/s
Count of elements : 902
Stream size : 28.9 KiB (0%)
Language : Norwegian Bokmal
Default : No
Forced : No

Text #17
ID : 19
Format : UTF-8
Codec ID : S_TEXT/UTF8
Codec ID/Info : UTF-8 Plain Text
Duration : 52 min 47 s
Bit rate : 80 b/s
Count of elements : 884
Stream size : 31.1 KiB (0%)
Language : Dutch
Default : No
Forced : No

Text #18
ID : 20
Format : UTF-8
Codec ID : S_TEXT/UTF8
Codec ID/Info : UTF-8 Plain Text
Duration : 52 min 47 s
Bit rate : 78 b/s
Count of elements : 909
Stream size : 30.5 KiB (0%)
Language : Polish
Default : No
Forced : No

Text #19
ID : 21
Format : UTF-8
Codec ID : S_TEXT/UTF8
Codec ID/Info : UTF-8 Plain Text
Duration : 52 min 47 s
Bit rate : 89 b/s
Count of elements : 924
Stream size : 34.7 KiB (0%)
Language : Portuguese
Default : No
Forced : No

Text #20
ID : 22
Format : UTF-8
Codec ID : S_TEXT/UTF8
Codec ID/Info : UTF-8 Plain Text
Duration : 52 min 47 s
Bit rate : 85 b/s
Count of elements : 915
Stream size : 33.2 KiB (0%)
Title : Brazilian
Language : Portuguese
Default : No
Forced : No

Text #21
ID : 23
Format : UTF-8
Codec ID : S_TEXT/UTF8
Codec ID/Info : UTF-8 Plain Text
Duration : 52 min 47 s
Bit rate : 91 b/s
Count of elements : 918
Stream size : 35.6 KiB (0%)
Language : Romanian
Default : No
Forced : No

Text #22
ID : 24
Format : UTF-8
Codec ID : S_TEXT/UTF8
Codec ID/Info : UTF-8 Plain Text
Duration : 52 min 47 s
Bit rate : 88 b/s
Count of elements : 901
Stream size : 34.2 KiB (0%)
Language : Swedish
Default : No
Forced : No

Text #23
ID : 25
Format : UTF-8
Codec ID : S_TEXT/UTF8
Codec ID/Info : UTF-8 Plain Text
Duration : 52 min 47 s
Bit rate : 263 b/s
Count of elements : 934
Stream size : 102 KiB (0%)
Language : Thai
Default : No
Forced : No

Text #24
ID : 26
Format : UTF-8
Codec ID : S_TEXT/UTF8
Codec ID/Info : UTF-8 Plain Text
Duration : 52 min 47 s
Bit rate : 89 b/s
Count of elements : 904
Stream size : 34.6 KiB (0%)
Language : Turkish
Default : No
Forced : No

Text #25
ID : 27
Format : UTF-8
Codec ID : S_TEXT/UTF8
Codec ID/Info : UTF-8 Plain Text
Duration : 52 min 47 s
Bit rate : 81 b/s
Count of elements : 934
Stream size : 31.5 KiB (0%)
Title : Simplified
Language : Chinese
Default : No
Forced : No

Text #26
ID : 28
Format : UTF-8
Codec ID : S_TEXT/UTF8
Codec ID/Info : UTF-8 Plain Text
Duration : 52 min 47 s
Bit rate : 87 b/s
Count of elements : 934
Stream size : 33.7 KiB (0%)
Title : Traditional
Language : Chinese
Default : No
Forced : No





Rapture S01E08


Rapture S01E08


Rapture S01E08


Rapture S01E08


Rapture S01E08

All episodes