Featured TV Shows


Raven's Home S04E06

Posted By: Tavaz
720p (HD) / WEB-DL IMDb
Raven's Home S04E06

Raven's Home S04E06
WEB-DL | MKV | 1280x720 | H264 @ 2511 kbps | E-AC-3 @ 640 kbps | 24 min 55 s | 573 MiB
Genre: Family, Comedy


Best friends Raven and Chelsea, now both divorced mothers, are raising their children in a house together. Their house is turned upside down when they realize one of Raven's children inherited the same psychic abilities as their mother.

952f654ad3704f6a94ae94166416eb68.mkv (573.2 MB)



General
Unique ID : 182483620970293162549089273339944728749 (0x89491126D37D9FE75D3D6F6F630578AD)
Complete name : ./952f654ad3704f6a94ae94166416eb68.mkv
Format : Matroska
Format version : Version 4 / Version 2
File size : 573 MiB
Duration : 24 min 55 s
Overall bit rate : 3 215 kb/s
Writing application : Lavf58.42.100
Writing library : Lavf58.42.100
ErrorDetectionType : Per level 1

Video
ID : 1
Format : AVC
Format/Info : Advanced Video Codec
Format profile : High@L3.1
Format settings : CABAC / 5 Ref Frames
Format settings, CABAC : Yes
Format settings, RefFrames : 5 frames
Codec ID : V_MPEG4/ISO/AVC
Duration : 24 min 55 s
Bit rate : 2 511 kb/s
Width : 1 280 pixels
Height : 720 pixels
Display aspect ratio : 16:9
Frame rate mode : Constant
Frame rate : 23.976 (24000/1001) FPS
Color space : YUV
Chroma subsampling : 4:2:0
Bit depth : 8 bits
Scan type : Progressive
Bits/(Pixel*Frame) : 0.114
Stream size : 448 MiB (78%)
Default : Yes
Forced : No
Color range : Limited
Color primaries : BT.709
Transfer characteristics : BT.709
Matrix coefficients : BT.709

Audio
ID : 2
Format : E-AC-3
Format/Info : Enhanced Audio Coding 3
Format settings, Endianness : Big
Codec ID : A_EAC3
Duration : 24 min 55 s
Bit rate mode : Constant
Bit rate : 640 kb/s
Channel(s) : 6 channels
Channel positions : Front: L C R, Side: L R, LFE
Sampling rate : 48.0 kHz
Frame rate : 187.500 FPS (256 SPF)
Bit depth : 32 bits
Compression mode : Lossy
Stream size : 114 MiB (20%)
Service kind : Complete Main
Default : Yes
Forced : No

Text
ID : 3
Format : ASS
Codec ID : S_TEXT/ASS
Codec ID/Info : Advanced Sub Station Alpha
Duration : 24 min 23 s
Compression mode : Lossless
Writing library : Lavc58.80.100 ssa
Default : No
Forced : No





Raven's Home S04E06


Raven's Home S04E06


Raven's Home S04E06


Raven's Home S04E06


Raven's Home S04E06

All episodes