Featured TV Shows


ReBoot: The Guardian Code S02E10

Posted By: Tavaz
720p (HD) / WEBRip IMDb
ReBoot: The Guardian Code S02E10

ReBoot: The Guardian Code S02E10
WEBRip | MKV | 1280x720 | English | H264 @ 4220 kbps | E-AC-3 @ 640 kbps | 22 min 44 s | 766 MiB
Subtitles: German, Swedish, Norwegian Bokmal, Finnish, English
Genre: Comedy, Drama


Four teens discover that they're next-gen Guardians with a mission to save the world, by defending it in cyberspace. The Internet revolutionized the world, but it also left it vulnerable to attack. With the help of VERA, the last surviving cyberbeing from the original Guardian Program, our heroes stream into cyberspace where they use their awesome code-based powers to battle viruses that have been unleashed by a ruthless hacker.

reboot.the.guardian.code.s02e10.720p.web.x264-strife.mkv (766.3 MB)
sample-reboot.the.guardian.code.s02e10.720p.web.x264-strife.mkv (33.3 MB)



General
Unique ID : 254758675433871188350750433406771434763 (0xBFA8BC750CFB887527DE4FC9656A950B)
Complete name : ./reboot.the.guardian.code.s02e10.720p.web.x264-strife.mkv
Format : Matroska
Format version : Version 4 / Version 2
File size : 766 MiB
Duration : 22 min 44 s
Overall bit rate mode : Variable
Overall bit rate : 4 712 kb/s
Encoded date : UTC 2018-09-28 07:05:31
Writing application : mkvmerge v26.0.0 ('In The Game') 64-bit
Writing library : libebml v1.3.6 + libmatroska v1.4.9

Video
ID : 1
Format : AVC
Format/Info : Advanced Video Codec
Format profile : Main@L3.1
Format settings : CABAC / 3 Ref Frames
Format settings, CABAC : Yes
Format settings, RefFrames : 3 frames
Codec ID : V_MPEG4/ISO/AVC
Duration : 22 min 44 s
Bit rate mode : Variable
Bit rate : 4 220 kb/s
Maximum bit rate : 6 330 kb/s
Width : 1 280 pixels
Height : 720 pixels
Display aspect ratio : 16:9
Frame rate mode : Constant
Frame rate : 23.976 (24000/1001) FPS
Color space : YUV
Chroma subsampling : 4:2:0
Bit depth : 8 bits
Scan type : Progressive
Bits/(Pixel*Frame) : 0.191
Stream size : 662 MiB (86%)
Writing library : x264 core 148 r2714 2daf636
Encoding settings : cabac=1 / ref=3 / deblock=1:0:0 / analyse=0x1:0x111 / me=umh / subme=10 / psy=1 / psy_rd=1.00:0.00 / mixed_ref=1 / me_range=24 / chroma_me=1 / trellis=2 / 8x8dct=0 / cqm=0 / deadzone=21,11 / fast_pskip=1 / chroma_qp_offset=-2 / threads=8 / lookahead_threads=1 / sliced_threads=0 / nr=0 / decimate=1 / interlaced=0 / bluray_compat=0 / stitchable=1 / constrained_intra=0 / bframes=2 / b_pyramid=0 / b_adapt=2 / b_bias=0 / direct=3 / weightb=1 / open_gop=0 / weightp=2 / keyint=48 / keyint_min=25 / scenecut=0 / intra_refresh=0 / rc_lookahead=48 / rc=2pass / mbtree=1 / bitrate=4220 / ratetol=1.0 / qcomp=0.50 / qpmin=6 / qpmax=51 / qpstep=4 / cplxblur=20.0 / qblur=0.5 / vbv_maxrate=6330 / vbv_bufsize=8440 / nal_hrd=vbr / filler=0 / ip_ratio=1.40 / aq=1:1.00
Default : Yes
Forced : No

Audio
ID : 2
Format : E-AC-3
Format/Info : Enhanced Audio Coding 3
Format settings, Endianness : Big
Codec ID : A_EAC3
Duration : 22 min 44 s
Bit rate mode : Constant
Bit rate : 640 kb/s
Channel(s) : 6 channels
Channel positions : Front: L C R, Side: L R, LFE
Sampling rate : 48.0 kHz
Frame rate : 187.500 FPS (256 SPF)
Compression mode : Lossy
Stream size : 104 MiB (14%)
Language : English
Service kind : Complete Main
Default : Yes
Forced : No

Text #1
ID : 3
Format : UTF-8
Codec ID : S_TEXT/UTF8
Codec ID/Info : UTF-8 Plain Text
Duration : 20 min 57 s
Bit rate : 55 b/s
Count of elements : 341
Stream size : 8.51 KiB (0%)
Language : English
Default : No
Forced : No

Text #2
ID : 4
Format : UTF-8
Codec ID : S_TEXT/UTF8
Codec ID/Info : UTF-8 Plain Text
Duration : 21 min 33 s
Bit rate : 44 b/s
Count of elements : 259
Stream size : 6.96 KiB (0%)
Language : Finnish
Default : No
Forced : No

Text #3
ID : 5
Format : UTF-8
Codec ID : S_TEXT/UTF8
Codec ID/Info : UTF-8 Plain Text
Duration : 21 min 33 s
Bit rate : 52 b/s
Count of elements : 288
Stream size : 8.21 KiB (0%)
Language : German
Default : No
Forced : No

Text #4
ID : 6
Format : UTF-8
Codec ID : S_TEXT/UTF8
Codec ID/Info : UTF-8 Plain Text
Duration : 21 min 33 s
Bit rate : 46 b/s
Count of elements : 286
Stream size : 7.32 KiB (0%)
Language : Norwegian Bokmal
Default : No
Forced : No

Text #5
ID : 7
Format : UTF-8
Codec ID : S_TEXT/UTF8
Codec ID/Info : UTF-8 Plain Text
Duration : 21 min 15 s
Bit rate : 45 b/s
Count of elements : 289
Stream size : 7.05 KiB (0%)
Language : Swedish
Default : No
Forced : No





ReBoot: The Guardian Code S02E10


ReBoot: The Guardian Code S02E10


ReBoot: The Guardian Code S02E10


ReBoot: The Guardian Code S02E10


ReBoot: The Guardian Code S02E10

All episodes