Featured TV Shows


Reverie S01E02

Posted By: Tavaz
SD / WEB-DL IMDb
Reverie S01E02

Reverie S01E02
WEB-DL | MKV | 720x480 | English | H264 @ 1502 kbps | AC-3 @ 384 kbps | 43 min 0 s | 581 MiB
Subtitles: English
Genre: Drama

A former detective specializing in human behavior is brought in when the launch of an advanced virtual reality program has dangerous and unintended consequences.

00328e49c4ea4818a7415a6a894da7da.mkv (580.9 MB)



General
Unique ID : 123221792821689325058513467757204585877 (0x5CB3A77073CF3E8DF25515064E93BD95)
Complete name : ./00328e49c4ea4818a7415a6a894da7da.mkv
Format : Matroska
Format version : Version 4 / Version 2
File size : 581 MiB
Duration : 43 min 0 s
Overall bit rate : 1 889 kb/s
Encoded date : UTC 2018-06-08 19:29:56
Writing application : mkvmerge v23.0.0 ('The Bride Said No') 64-bit
Writing library : libebml v1.3.6 + libmatroska v1.4.9

Video
ID : 1
Format : AVC
Format/Info : Advanced Video Codec
Format profile : Main@L3
Format settings : 2 Ref Frames
Format settings, CABAC : No
Format settings, RefFrames : 2 frames
Codec ID : V_MPEG4/ISO/AVC
Duration : 43 min 0 s
Bit rate : 1 503 kb/s
Width : 720 pixels
Height : 480 pixels
Display aspect ratio : 16:9
Frame rate mode : Constant
Frame rate : 23.976 (23976/1000) FPS
Color space : YUV
Chroma subsampling : 4:2:0
Bit depth : 8 bits
Scan type : Progressive
Bits/(Pixel*Frame) : 0.181
Stream size : 462 MiB (80%)
Language : English
Default : Yes
Forced : No
Color range : Limited
Color primaries : BT.709
Transfer characteristics : BT.709
Matrix coefficients : BT.709

Audio
ID : 2
Format : AC-3
Format/Info : Audio Coding 3
Format settings, Endianness : Big
Codec ID : A_AC3
Duration : 43 min 0 s
Bit rate mode : Constant
Bit rate : 384 kb/s
Channel(s) : 6 channels
Channel positions : Front: L C R, Side: L R, LFE
Sampling rate : 48.0 kHz
Frame rate : 31.250 FPS (1536 SPF)
Bit depth : 16 bits
Compression mode : Lossy
Delay relative to video : -42 ms
Stream size : 118 MiB (20%)
Language : English
Service kind : Complete Main
Default : Yes
Forced : No

Text
ID : 3
Format : UTF-8
Codec ID : S_TEXT/UTF8
Codec ID/Info : UTF-8 Plain Text
Duration : 42 min 18 s
Bit rate : 110 b/s
Count of elements : 911
Stream size : 34.2 KiB (0%)
Language : English
Default : Yes
Forced : No





Reverie S01E02


Reverie S01E02


Reverie S01E02


Reverie S01E02


Reverie S01E02

All episodes