Featured TV Shows


Reverie S01E03

Posted By: Tavaz
1080p (FullHD) / WEB-DL IMDb
Reverie S01E03

Reverie S01E03
WEB-DL | MKV | 1920x1080 | English | H264 @ 6459 kbps | E-AC-3 @ 640 kbps | 42 min 41 s | 2.12 GiB
Subtitles: English
Genre: Drama

A former detective specializing in human behavior is brought in when the launch of an advanced virtual reality program has dangerous and unintended consequences.

3658de3a2d5042dd9f6c693122973558.mkv (2.1 GB)



General
Unique ID : 199672400174403004221551371042541057350 (0x963781659673F26CB21A6E67D8ECB546)
Complete name : ./3658de3a2d5042dd9f6c693122973558.mkv
Format : Matroska
Format version : Version 4 / Version 2
File size : 2.12 GiB
Duration : 42 min 41 s
Overall bit rate : 7 102 kb/s
Encoded date : UTC 2018-06-14 15:44:06
Writing application : mkvmerge v13.0.0 ('The Juggler') 64bit
Writing library : libebml v1.3.4 + libmatroska v1.4.5

Video
ID : 1
Format : AVC
Format/Info : Advanced Video Codec
Format profile : High@L4
Format settings : CABAC / 4 Ref Frames
Format settings, CABAC : Yes
Format settings, RefFrames : 4 frames
Codec ID : V_MPEG4/ISO/AVC
Duration : 42 min 41 s
Bit rate : 6 460 kb/s
Width : 1 920 pixels
Height : 1 080 pixels
Display aspect ratio : 16:9
Frame rate mode : Constant
Frame rate : 23.976 (24000/1001) FPS
Color space : YUV
Chroma subsampling : 4:2:0
Bit depth : 8 bits
Scan type : Progressive
Bits/(Pixel*Frame) : 0.130
Stream size : 1.93 GiB (91%)
Default : Yes
Forced : No
Color range : Limited
Color primaries : BT.709
Transfer characteristics : BT.709
Matrix coefficients : BT.709

Audio
ID : 2
Format : E-AC-3
Format/Info : Enhanced Audio Coding 3
Format settings, Endianness : Big
Codec ID : A_EAC3
Duration : 42 min 41 s
Bit rate mode : Constant
Bit rate : 640 kb/s
Channel(s) : 6 channels
Channel positions : Front: L C R, Side: L R, LFE
Sampling rate : 48.0 kHz
Frame rate : 187.500 FPS (256 SPF)
Compression mode : Lossy
Stream size : 195 MiB (9%)
Language : English
Service kind : Complete Main
Default : Yes
Forced : No

Text #1
ID : 3
Format : UTF-8
Codec ID : S_TEXT/UTF8
Codec ID/Info : UTF-8 Plain Text
Duration : 42 min 0 s
Bit rate : 67 b/s
Count of elements : 682
Stream size : 20.7 KiB (0%)
Language : English
Default : No
Forced : No

Text #2
ID : 4
Format : UTF-8
Codec ID : S_TEXT/UTF8
Codec ID/Info : UTF-8 Plain Text
Duration : 42 min 0 s
Bit rate : 73 b/s
Count of elements : 757
Stream size : 22.7 KiB (0%)
Title : SDH
Language : English
Default : No
Forced : No





Reverie S01E03


Reverie S01E03


Reverie S01E03


Reverie S01E03


Reverie S01E03

All episodes