Featured TV Shows


Reverie S01E04

Posted By: Tavaz
1080p (FullHD) / WEB-DL IMDb
Reverie S01E04

Reverie S01E04
WEB-DL | MKV | 1920x1080 | English | H264 @ 6160 kbps | E-AC-3 @ 640 kbps | 43 min 3 s | 2.05 GiB
Subtitles: English
Genre: Drama

A former detective specializing in human behavior is brought in when the launch of an advanced virtual reality program has dangerous and unintended consequences.

9a5ae833dfec4661bc08d532eab2ec49.mkv (2.0 GB)



General
Unique ID : 236791612570850652910852093642200287852 (0xB22467DD764F738C9FD4EC7B51AF8A6C)
Complete name : ./9a5ae833dfec4661bc08d532eab2ec49.mkv
Format : Matroska
Format version : Version 4 / Version 2
File size : 2.05 GiB
Duration : 43 min 3 s
Overall bit rate : 6 803 kb/s
Encoded date : UTC 2018-06-21 15:08:09
Writing application : mkvmerge v13.0.0 ('The Juggler') 64bit
Writing library : libebml v1.3.4 + libmatroska v1.4.5

Video
ID : 1
Format : AVC
Format/Info : Advanced Video Codec
Format profile : High@L4
Format settings : CABAC / 4 Ref Frames
Format settings, CABAC : Yes
Format settings, RefFrames : 4 frames
Codec ID : V_MPEG4/ISO/AVC
Duration : 43 min 3 s
Bit rate : 6 161 kb/s
Width : 1 920 pixels
Height : 1 080 pixels
Display aspect ratio : 16:9
Frame rate mode : Constant
Frame rate : 23.976 (24000/1001) FPS
Color space : YUV
Chroma subsampling : 4:2:0
Bit depth : 8 bits
Scan type : Progressive
Bits/(Pixel*Frame) : 0.124
Stream size : 1.85 GiB (91%)
Default : Yes
Forced : No
Color range : Limited
Color primaries : BT.709
Transfer characteristics : BT.709
Matrix coefficients : BT.709

Audio
ID : 2
Format : E-AC-3
Format/Info : Enhanced Audio Coding 3
Format settings, Endianness : Big
Codec ID : A_EAC3
Duration : 43 min 3 s
Bit rate mode : Constant
Bit rate : 640 kb/s
Channel(s) : 6 channels
Channel positions : Front: L C R, Side: L R, LFE
Sampling rate : 48.0 kHz
Frame rate : 187.500 FPS (256 SPF)
Compression mode : Lossy
Stream size : 197 MiB (9%)
Language : English
Service kind : Complete Main
Default : Yes
Forced : No

Text #1
ID : 3
Format : UTF-8
Codec ID : S_TEXT/UTF8
Codec ID/Info : UTF-8 Plain Text
Duration : 42 min 20 s
Bit rate : 71 b/s
Count of elements : 825
Stream size : 22.3 KiB (0%)
Language : English
Default : No
Forced : No

Text #2
ID : 4
Format : UTF-8
Codec ID : S_TEXT/UTF8
Codec ID/Info : UTF-8 Plain Text
Duration : 42 min 20 s
Bit rate : 79 b/s
Count of elements : 929
Stream size : 24.8 KiB (0%)
Title : SDH
Language : English
Default : No
Forced : No





Reverie S01E04


Reverie S01E04


Reverie S01E04


Reverie S01E04


Reverie S01E04

All episodes