Featured TV Shows


Reverie S01E06

Posted By: Tavaz
SD / WEB-DL IMDb
Reverie S01E06

Reverie S01E06
WEB-DL | MKV | 720x480 | English | H264 @ 1506 kbps | AC-3 @ 384 kbps | 43 min 3 s | 583 MiB
Subtitles: English
Genre: Drama

A former detective specializing in human behavior is brought in when the launch of an advanced virtual reality program has dangerous and unintended consequences.

49740d09bea341eda5de5cc3054b5c36.mkv (583.0 MB)



General
Unique ID : 18612636879471641710513457218440737802 (0xE00A9D93C946D166CC83CA6257D340A)
Complete name : ./49740d09bea341eda5de5cc3054b5c36.mkv
Format : Matroska
Format version : Version 4 / Version 2
File size : 583 MiB
Duration : 43 min 3 s
Overall bit rate : 1 893 kb/s
Encoded date : UTC 2018-07-12 11:25:03
Writing application : mkvmerge v24.0.0 ('Beyond The Pale') 64-bit
Writing library : libebml v1.3.6 + libmatroska v1.4.9

Video
ID : 1
Format : AVC
Format/Info : Advanced Video Codec
Format profile : Main@L3
Format settings : 2 Ref Frames
Format settings, CABAC : No
Format settings, RefFrames : 2 frames
Codec ID : V_MPEG4/ISO/AVC
Duration : 43 min 3 s
Bit rate : 1 507 kb/s
Width : 720 pixels
Height : 480 pixels
Display aspect ratio : 16:9
Frame rate mode : Constant
Frame rate : 23.976 (23976/1000) FPS
Color space : YUV
Chroma subsampling : 4:2:0
Bit depth : 8 bits
Scan type : Progressive
Bits/(Pixel*Frame) : 0.182
Stream size : 464 MiB (80%)
Language : English
Default : Yes
Forced : No
Color range : Limited
Color primaries : BT.709
Transfer characteristics : BT.709
Matrix coefficients : BT.709

Audio
ID : 2
Format : AC-3
Format/Info : Audio Coding 3
Format settings, Endianness : Big
Codec ID : A_AC3
Duration : 43 min 3 s
Bit rate mode : Constant
Bit rate : 384 kb/s
Channel(s) : 6 channels
Channel positions : Front: L C R, Side: L R, LFE
Sampling rate : 48.0 kHz
Frame rate : 31.250 FPS (1536 SPF)
Bit depth : 16 bits
Compression mode : Lossy
Delay relative to video : -42 ms
Stream size : 118 MiB (20%)
Language : English
Service kind : Complete Main
Default : Yes
Forced : No

Text
ID : 3
Format : UTF-8
Codec ID : S_TEXT/UTF8
Codec ID/Info : UTF-8 Plain Text
Duration : 42 min 14 s
Bit rate : 112 b/s
Count of elements : 897
Stream size : 34.9 KiB (0%)
Language : English
Default : Yes
Forced : No





Reverie S01E06


Reverie S01E06


Reverie S01E06


Reverie S01E06


Reverie S01E06

All episodes