Featured TV Shows


Reverie S01E07

Posted By: Tavaz
720p (HD) / WEB-DL IMDb
Reverie S01E07

Reverie S01E07
WEB-DL | MKV | 1280x720 | English | H264 @ 1664 kbps | E-AC-3 @ 640 kbps | 43 min 2 s | 710 MiB
Subtitles: English
Genre: Drama

A former detective specializing in human behavior is brought in when the launch of an advanced virtual reality program has dangerous and unintended consequences.

1ad05fb0a260487280665791876aeddf.mkv (710.2 MB)



General
Unique ID : 251740001101020048316324632140691558891 (0xBD635C5261D99FF795A3142CFE0851EB)
Complete name : ./1ad05fb0a260487280665791876aeddf.mkv
Format : Matroska
Format version : Version 4 / Version 2
File size : 710 MiB
Duration : 43 min 2 s
Overall bit rate : 2 307 kb/s
Encoded date : UTC 2018-07-19 14:30:50
Writing application : mkvmerge v13.0.0 ('The Juggler') 64bit
Writing library : libebml v1.3.4 + libmatroska v1.4.5

Video
ID : 1
Format : AVC
Format/Info : Advanced Video Codec
Format profile : High@L3.1
Format settings : CABAC / 5 Ref Frames
Format settings, CABAC : Yes
Format settings, RefFrames : 5 frames
Codec ID : V_MPEG4/ISO/AVC
Duration : 43 min 2 s
Bit rate : 1 664 kb/s
Width : 1 280 pixels
Height : 720 pixels
Display aspect ratio : 16:9
Frame rate mode : Constant
Frame rate : 23.976 (24000/1001) FPS
Color space : YUV
Chroma subsampling : 4:2:0
Bit depth : 8 bits
Scan type : Progressive
Bits/(Pixel*Frame) : 0.075
Stream size : 512 MiB (72%)
Default : Yes
Forced : No
Color range : Limited
Color primaries : BT.709
Transfer characteristics : BT.709
Matrix coefficients : BT.709

Audio
ID : 2
Format : E-AC-3
Format/Info : Enhanced Audio Coding 3
Format settings, Endianness : Big
Codec ID : A_EAC3
Duration : 43 min 2 s
Bit rate mode : Constant
Bit rate : 640 kb/s
Channel(s) : 6 channels
Channel positions : Front: L C R, Side: L R, LFE
Sampling rate : 48.0 kHz
Frame rate : 187.500 FPS (256 SPF)
Compression mode : Lossy
Stream size : 197 MiB (28%)
Language : English
Service kind : Complete Main
Default : Yes
Forced : No

Text #1
ID : 3
Format : UTF-8
Codec ID : S_TEXT/UTF8
Codec ID/Info : UTF-8 Plain Text
Duration : 42 min 31 s
Bit rate : 78 b/s
Count of elements : 866
Stream size : 24.6 KiB (0%)
Language : English
Default : No
Forced : No

Text #2
ID : 4
Format : UTF-8
Codec ID : S_TEXT/UTF8
Codec ID/Info : UTF-8 Plain Text
Duration : 42 min 31 s
Bit rate : 87 b/s
Count of elements : 1024
Stream size : 27.3 KiB (0%)
Title : SDH
Language : English
Default : No
Forced : No





Reverie S01E07


Reverie S01E07


Reverie S01E07


Reverie S01E07


Reverie S01E07

All episodes