Index
# A B C D E F G H I J K L M N O P Q R S T U V W Y Z
Tags
Language
Tags

Featured TV Shows


Rick and Morty S02E01

Posted By: Tavaz
1080p (FullHD) / BDRip IMDb
Rick and Morty S02E01

Rick and Morty S02E01
BDRip | MKV | 1920x1080 | English | H265 @ 3247 kbps | E-AC-3 @ 448 kbps | 22 min 51 s | 723 MiB
Subtitles: English
Genre: Animation, Comedy


Rick is a mentally-unbalanced but scientifically-gifted old man who has recently reconnected with his family. He spends most of his time involving his young grandson Morty in dangerous, outlandish adventures throughout space and alternate universes. Compounded with Morty's already unstable family life, these events cause Morty much distress at home and school.

7d1962ff195f93a48ee4cbf3cd844fce.mkv (723.3 MB)



General
Unique ID : 153461985787698266616906125704516885901 (0x7373B41068704788E8F8CB7390745D8D)
Complete name : ./7d1962ff195f93a48ee4cbf3cd844fce.mkv
Format : Matroska
Format version : Version 4 / Version 2
File size : 723 MiB
Duration : 22 min 51 s
Overall bit rate : 4 423 kb/s
Movie name : Rick and Morty (2013) S02E01 - A Rickle in Time (1080p BDRip x265 10bit EAC3 5.1 - ArcX)[TAoE].mkv
Writing application : Lavf58.29.100
Writing library : Lavf58.29.100
ErrorDetectionType : Per level 1

Video
ID : 1
Format : HEVC
Format/Info : High Efficiency Video Coding
Format profile : Main 10@L4@Main
Codec ID : V_MPEGH/ISO/HEVC
Duration : 22 min 51 s
Bit rate : 3 247 kb/s
Width : 1 920 pixels
Height : 1 080 pixels
Display aspect ratio : 16:9
Frame rate mode : Constant
Frame rate : 23.976 (24000/1001) FPS
Color space : YUV
Chroma subsampling : 4:2:0
Bit depth : 10 bits
Bits/(Pixel*Frame) : 0.065
Stream size : 531 MiB (73%)
Title : Encoded by ArcX for TAoE
Writing library : x265 3.2.1+1-b5c86a64bbbe:[Linux][GCC 9.2.1][64 bit] 10bit
Encoding settings : cpuid=1111039 / frame-threads=2 / wpp / no-pmode / no-pme / no-psnr / no-ssim / log-level=2 / input-csp=1 / input-res=1920x1080 / interlace=0 / total-frames=0 / level-idc=0 / high-tier=1 / uhd-bd=0 / ref=4 / no-allow-non-conformance / no-repeat-headers / annexb / no-aud / no-hrd / info / hash=0 / no-temporal-layers / open-gop / min-keyint=23 / keyint=250 / gop-lookahead=0 / bframes=8 / b-adapt=2 / b-pyramid / bframe-bias=0 / rc-lookahead=80 / lookahead-slices=4 / scenecut=40 / radl=0 / no-splice / no-intra-refresh / ctu=64 / min-cu-size=8 / no-rect / no-amp / max-tu-size=32 / tu-inter-depth=1 / tu-intra-depth=1 / limit-tu=0 / rdoq-level=2 / dynamic-rd=0.00 / no-ssim-rd / signhide / no-tskip / nr-intra=0 / nr-inter=0 / no-constrained-intra / no-strong-intra-smoothing / max-merge=3 / limit-refs=3 / limit-modes / me=3 / subme=5 / merange=57 / temporal-mvp / no-hme / weightp / no-weightb / no-analyze-src-pics / deblock=0:0 / sao / no-sao-non-deblock / rd=4 / selective-sao=4 / no-early-skip / rskip / no-fast-intra / no-tskip-fast / no-cu-lossless / no-b-intra / no-splitrd-skip / rdpenalty=0 / psy-rd=1.30 / psy-rdoq=2.00 / no-rd-refine / no-lossless / cbqpoffs=0 / crqpoffs=0 / rc=crf / crf=20.0 / qcomp=0.60 / qpstep=4 / stats-write=0 / stats-read=0 / ipratio=1.40 / pbratio=1.30 / aq-mode=4 / aq-strength=1.10 / cutree / zone-count=0 / no-strict-cbr / qg-size=32 / no-rc-grain / qpmax=69 / qpmin=0 / no-const-vbv / sar=1 / overscan=0 / videoformat=5 / range=0 / colorprim=2 / transfer=2 / colormatrix=2 / chromaloc=0 / display-window=0 / cll=0,0 / min-luma=0 / max-luma=1023 / log2-max-poc-lsb=8 / vui-timing-info / vui-hrd-info / slices=1 / no-opt-qp-pps / no-opt-ref-list-length-pps / no-multi-pass-opt-rps / scenecut-bias=0.05 / no-opt-cu-delta-qp / no-aq-motion / no-hdr / no-hdr-opt / no-dhdr10-opt / no-idr-recovery-sei / analysis-reuse-level=5 / scale-factor=0 / refine-intra=0 / refine-inter=0 / refine-mv=1 / refine-ctu-distortion=0 / no-limit-sao / ctu-info=0 / no-lowpass-dct / refine-analysis-type=0 / copy-pic=1 / max-ausize-factor=1.0 / no-dynamic-refine / no-single-sei / no-hevc-aq / no-svt / no-field / qp-adaptation-range=1.00
Default : Yes
Forced : Yes
Color range : Limited
Statistics Tags Issue : mkvpropedit v28.2.0 ('The Awakening') 64-bit 2020-04-10 00:43:34 / Lavf58.29.100
FromStats_BitRate : 3249175
FromStats_Duration : 00:22:51.624708333
FromStats_FrameCount : 32886
FromStats_StreamSize : 557080911

Audio #1
ID : 3
Format : E-AC-3
Format/Info : Enhanced Audio Coding 3
Format settings, Endianness : Big
Codec ID : A_EAC3
Duration : 22 min 51 s
Bit rate mode : Constant
Bit rate : 448 kb/s
Channel(s) : 6 channels
Channel positions : Front: L C R, Side: L R, LFE
Sampling rate : 48.0 kHz
Frame rate : 187.500 FPS (256 SPF)
Bit depth : 24 bits
Compression mode : Lossy
Delay relative to video : -42 ms
Stream size : 73.3 MiB (10%)
Title : Main Audio / English / Dolby TrueHD Audio / 5.1 / 48 kHz / 4248 kbps / 24-bit
Writing library : Lavc58.54.100 eac3
Language : English
Service kind : Complete Main
Default : Yes
Forced : Yes
Statistics Tags Issue : mkvpropedit v28.2.0 ('The Awakening') 64-bit 2020-04-10 00:43:34 / Lavf58.29.100
FromStats_BitRate : 448010
FromStats_Duration : 00:22:51.616000000
FromStats_FrameCount : 42864
FromStats_StreamSize : 76812288

Audio #2
ID : 4
Format : E-AC-3
Format/Info : Enhanced Audio Coding 3
Format settings, Endianness : Big
Codec ID : A_EAC3
Duration : 22 min 51 s
Bit rate mode : Constant
Bit rate : 448 kb/s
Channel(s) : 6 channels
Channel positions : Front: L C R, Side: L R, LFE
Sampling rate : 48.0 kHz
Frame rate : 187.500 FPS (256 SPF)
Bit depth : 32 bits
Compression mode : Lossy
Delay relative to video : -42 ms
Stream size : 73.3 MiB (10%)
Title : Main Audio / English / AC3 / 5.1 / 48 kHz / 448 kbps
Writing library : Lavc58.54.100 eac3
Language : English
Service kind : Complete Main
Default : No
Forced : No
Statistics Tags Issue : mkvpropedit v28.2.0 ('The Awakening') 64-bit 2020-04-10 00:43:34 / Lavf58.29.100
FromStats_BitRate : 448010
FromStats_Duration : 00:22:51.616000000
FromStats_FrameCount : 42864
FromStats_StreamSize : 76812288

Audio #3
ID : 5
Format : E-AC-3
Format/Info : Enhanced Audio Coding 3
Format settings, Endianness : Big
Codec ID : A_EAC3
Duration : 22 min 51 s
Bit rate mode : Constant
Bit rate : 192 kb/s
Channel(s) : 2 channels
Channel positions : Front: L R
Sampling rate : 48.0 kHz
Frame rate : 187.500 FPS (256 SPF)
Bit depth : 32 bits
Compression mode : Lossy
Delay relative to video : -42 ms
Stream size : 31.4 MiB (4%)
Title : Commentary with Dan Harmon, Justin Roiland, Ryan Ridley and Wes Archer / English / Dolby Digital Audio / 2.0 / 48 kHz / 192 kbps / DN -4dB
Writing library : Lavc58.54.100 eac3
Language : English
Service kind : Complete Main
Default : No
Forced : No
Statistics Tags Issue : mkvpropedit v28.2.0 ('The Awakening') 64-bit 2020-04-10 00:43:34 / Lavf58.29.100
FromStats_BitRate : 192004
FromStats_Duration : 00:22:51.616000000
FromStats_FrameCount : 42864
FromStats_StreamSize : 32919552

Text
ID : 2
Format : PGS
Codec ID : S_HDMV/PGS
Codec ID/Info : Picture based subtitle format used on BDs/HD-DVDs
Title : English / 79.103 kbps
Language : English
Default : No
Forced : No
Statistics Tags Issue : mkvpropedit v28.2.0 ('The Awakening') 64-bit 2020-04-10 00:43:34 / Lavf58.29.100
FromStats_BitRate : 79946
FromStats_Duration : 00:22:37.148000000
FromStats_FrameCount : 1336
FromStats_StreamSize : 13562458

Menu
00:00:00.000 : :Chapter 1
00:02:29.358 : :Chapter 2
00:03:01.181 : :Chapter 3
00:11:13.506 : :Chapter 4
00:21:31.957 : :Chapter 5
00:22:02.905 : :Chapter 6





Rick and Morty S02E01


Rick and Morty S02E01


Rick and Morty S02E01


Rick and Morty S02E01


Rick and Morty S02E01

All episodes