Index
# A B C D E F G H I J K L M N O P Q R S T U V W Y Z
Tags
Language
Tags

Featured TV Shows


Rick and Morty S02E07

Posted By: Tavaz
720p (HD) / WEB-DL IMDb
Rick and Morty S02E07

Rick and Morty S02E07
WEB-DL | MKV | 1280x718 | English | H264 @ 4043 kbps | AC-3 @ 384 kbps | 22 min 57 s | 728 MiB
Subtitles: English
Genre: Animasi, Komedi


Rick adalah orang tua yang tidak seimbang secara mental tetapi berbakat secara ilmiah yang baru-baru ini terhubung kembali dengan keluarganya. Dia menghabiskan sebagian besar waktunya dengan melibatkan cucunya yang muda, Morty, dalam petualangan berbahaya dan aneh di luar angkasa dan alam semesta alternatif. Ditambah dengan kehidupan keluarga Morty yang sudah tidak stabil, peristiwa-peristiwa ini menyebabkan Morty sangat tertekan di rumah dan sekolah.

0ef2c1f9490744f69fee3de066ba90db.mkv (727.6 MB)



General
Unique ID : 204256603201449075923473862917936693787 (0x99AA640E61BF5C39A95070A33744C21B)
Complete name : ./0ef2c1f9490744f69fee3de066ba90db.mkv
Format : Matroska
Format version : Version 4 / Version 2
File size : 728 MiB
Duration : 22 min 57 s
Overall bit rate : 4 430 kb/s
Encoded date : UTC 2015-09-14 07:27:01
Writing application : mkvmerge v8.2.0 ('World of Adventure') 64bit
Writing library : libebml v1.3.1 + libmatroska v1.4.2

Video
ID : 1
Format : AVC
Format/Info : Advanced Video Codec
Format profile : High@L3.1
Format settings : 2 Ref Frames
Format settings, CABAC : No
Format settings, RefFrames : 2 frames
Codec ID : V_MPEG4/ISO/AVC
Duration : 22 min 57 s
Bit rate : 4 044 kb/s
Width : 1 280 pixels
Height : 718 pixels
Display aspect ratio : 16:9
Frame rate mode : Constant
Frame rate : 23.976 (24000/1001) FPS
Color space : YUV
Chroma subsampling : 4:2:0
Bit depth : 8 bits
Scan type : Progressive
Bits/(Pixel*Frame) : 0.184
Stream size : 664 MiB (91%)
Language : English
Default : Yes
Forced : No
Color range : Limited
Color primaries : BT.709
Transfer characteristics : BT.709
Matrix coefficients : BT.709

Audio
ID : 2
Format : AC-3
Format/Info : Audio Coding 3
Format settings, Endianness : Big
Codec ID : A_AC3
Duration : 22 min 57 s
Bit rate mode : Constant
Bit rate : 384 kb/s
Channel(s) : 6 channels
Channel positions : Front: L C R, Side: L R, LFE
Sampling rate : 48.0 kHz
Frame rate : 31.250 FPS (1536 SPF)
Bit depth : 16 bits
Compression mode : Lossy
Stream size : 63.1 MiB (9%)
Language : English
Service kind : Complete Main
Default : Yes
Forced : No

Text
ID : 3
Format : UTF-8
Codec ID : S_TEXT/UTF8
Codec ID/Info : UTF-8 Plain Text
Duration : 22 min 53 s
Bit rate : 114 b/s
Count of elements : 647
Stream size : 19.2 KiB (0%)
Language : English
Default : No
Forced : No





Rick and Morty S02E07


Rick and Morty S02E07


Rick and Morty S02E07


Rick and Morty S02E07


Rick and Morty S02E07

All episodes