Index
# A B C D E F G H I J K L M N O P Q R S T U V W Y Z
Tags
Language
Tags

Featured TV Shows


Rick and Morty S04E03

Posted By: Tavaz
1080p (FullHD) / WEB-DL IMDb
Rick and Morty S04E03

Rick and Morty S04E03
WEB-DL | MKV | 1920x1080 | English | H264 @ 2129 kbps | E-AC-3 @ 640 kbps | 22 min 38 s | 449 MiB
Subtitles: English
Genre: Animation, Comedy


Rick is a mentally-unbalanced but scientifically-gifted old man who has recently reconnected with his family. He spends most of his time involving his young grandson Morty in dangerous, outlandish adventures throughout space and alternate universes. Compounded with Morty's already unstable family life, these events cause Morty much distress at home and school.

2db10212c81e4b1f852b570953d41336.mkv (448.6 MB)



General
Unique ID : 36008986191517508591932948434368096413 (0x1B1714171710F7C6932A352F6AA0689D)
Complete name : ./2db10212c81e4b1f852b570953d41336.mkv
Format : Matroska
Format version : Version 4 / Version 2
File size : 449 MiB
Duration : 22 min 38 s
Overall bit rate : 2 771 kb/s
Encoded date : UTC 2019-11-25 13:18:17
Writing application : mkvmerge v40.0.0 ('Old Town Road + Pony') 64-bit
Writing library : libebml v1.3.9 + libmatroska v1.5.2

Video
ID : 1
Format : AVC
Format/Info : Advanced Video Codec
Format profile : High@L4
Format settings : CABAC / 4 Ref Frames
Format settings, CABAC : Yes
Format settings, RefFrames : 4 frames
Codec ID : V_MPEG4/ISO/AVC
Duration : 22 min 38 s
Bit rate : 2 129 kb/s
Width : 1 920 pixels
Height : 1 080 pixels
Display aspect ratio : 16:9
Frame rate mode : Constant
Frame rate : 23.976 (24000/1001) FPS
Color space : YUV
Chroma subsampling : 4:2:0
Bit depth : 8 bits
Scan type : Progressive
Bits/(Pixel*Frame) : 0.043
Stream size : 345 MiB (77%)
Default : Yes
Forced : No
Color range : Limited
Color primaries : BT.709
Transfer characteristics : BT.709
Matrix coefficients : BT.709

Audio
ID : 2
Format : E-AC-3
Format/Info : Enhanced Audio Coding 3
Format settings, Endianness : Big
Codec ID : A_EAC3
Duration : 22 min 38 s
Bit rate mode : Constant
Bit rate : 640 kb/s
Channel(s) : 6 channels
Channel positions : Front: L C R, Side: L R, LFE
Sampling rate : 48.0 kHz
Frame rate : 187.500 FPS (256 SPF)
Compression mode : Lossy
Stream size : 104 MiB (23%)
Language : English
Service kind : Complete Main
Default : Yes
Forced : No

Text
ID : 3
Format : UTF-8
Codec ID : S_TEXT/UTF8
Codec ID/Info : UTF-8 Plain Text
Duration : 22 min 31 s
Bit rate : 107 b/s
Count of elements : 576
Stream size : 17.7 KiB (0%)
Title : SDH
Language : English
Default : No
Forced : No





Rick and Morty S04E03


Rick and Morty S04E03


Rick and Morty S04E03


Rick and Morty S04E03


Rick and Morty S04E03

All episodes