Featured TV Shows


Rick and Morty S04E05

Posted By: Tavaz
1080p (FullHD) / WEBRip IMDb
Rick and Morty S04E05

Rick and Morty S04E05
WEBRip | MKV | 1920x1080 | Français / English | H264 @ 3388 kbps | AAC @ 132 kbps | 20 min 58 s | 548 MiB
Subtitles: Français
Genre: Animation, Comedy


Rick is a mentally-unbalanced but scientifically-gifted old man who has recently reconnected with his family. He spends most of his time involving his young grandson Morty in dangerous, outlandish adventures throughout space and alternate universes. Compounded with Morty's already unstable family life, these events cause Morty much distress at home and school.

caf8976818844bc780f472739085a3fe.mkv (548.0 MB)



General
Unique ID : 149607852548364509330644207613298926082 (0x708D6C9FD4E3327FED9ADA4F3750E202)
Complete name : ./caf8976818844bc780f472739085a3fe.mkv
Format : Matroska
Format version : Version 4 / Version 2
File size : 548 MiB
Duration : 20 min 58 s
Overall bit rate : 3 653 kb/s
Encoded date : UTC 2020-03-12 23:06:16
Writing application : mkvmerge v44.0.0 ('Domino') 64-bit
Writing library : libebml v1.3.10 + libmatroska v1.5.2

Video
ID : 1
Format : AVC
Format/Info : Advanced Video Codec
Format profile : High@L4
Format settings : CABAC / 4 Ref Frames
Format settings, CABAC : Yes
Format settings, RefFrames : 4 frames
Codec ID : V_MPEG4/ISO/AVC
Duration : 20 min 58 s
Bit rate : 3 388 kb/s
Width : 1 920 pixels
Height : 1 080 pixels
Display aspect ratio : 16:9
Frame rate mode : Constant
Frame rate : 25.000 FPS
Color space : YUV
Chroma subsampling : 4:2:0
Bit depth : 8 bits
Scan type : Progressive
Bits/(Pixel*Frame) : 0.065
Stream size : 508 MiB (93%)
Default : Yes
Forced : No

Audio #1
ID : 2
Format : AAC
Format/Info : Advanced Audio Codec
Format profile : LC
Codec ID : A_AAC-2
Duration : 20 min 58 s
Bit rate : 132 kb/s
Channel(s) : 2 channels
Channel positions : Front: L R
Sampling rate : 48.0 kHz
Frame rate : 46.875 FPS (1024 SPF)
Compression mode : Lossy
Stream size : 19.6 MiB (4%)
Title : French
Language : French
Default : Yes
Forced : No

Audio #2
ID : 3
Format : AAC
Format/Info : Advanced Audio Codec
Format profile : LC
Codec ID : A_AAC-2
Duration : 20 min 58 s
Bit rate : 132 kb/s
Channel(s) : 2 channels
Channel positions : Front: L R
Sampling rate : 48.0 kHz
Frame rate : 46.875 FPS (1024 SPF)
Compression mode : Lossy
Stream size : 19.6 MiB (4%)
Title : English
Language : English
Default : No
Forced : No

Text
ID : 4
Format : UTF-8
Codec ID : S_TEXT/UTF8
Codec ID/Info : UTF-8 Plain Text
Duration : 20 min 56 s
Bit rate : 75 b/s
Count of elements : 337
Stream size : 11.5 KiB (0%)
Title : French
Language : French
Default : No
Forced : No





Rick and Morty S04E05


Rick and Morty S04E05


Rick and Morty S04E05


Rick and Morty S04E05


Rick and Morty S04E05

All episodes