Featured TV Shows


Rick and Morty S04E09

Posted By: Tavaz
720p (HD) / HDTV IMDb
Rick and Morty S04E09

Rick and Morty S04E09
HDTV | MKV | 1280x720 | English | H264 @ 3131 kbps | AC-3 @ 448 kbps | 22 min 31 s | 577 MiB
Subtitles: English
Genre: Animation, Comedy


Rick is a mentally-unbalanced but scientifically-gifted old man who has recently reconnected with his family. He spends most of his time involving his young grandson Morty in dangerous, outlandish adventures throughout space and alternate universes. Compounded with Morty's already unstable family life, these events cause Morty much distress at home and school.

c6ba981f9eb9c42f7b0ebd266ac87d41.mkv (577.3 MB)



General
Unique ID : 329819647756397059946643505298672610816 (0xF820F41E38785702DA85D9194DDE6E00)
Complete name : ./c6ba981f9eb9c42f7b0ebd266ac87d41.mkv
Format : Matroska
Format version : Version 4 / Version 2
File size : 577 MiB
Duration : 22 min 31 s
Overall bit rate : 3 582 kb/s
Encoded date : UTC 2020-05-25 18:34:23
Writing application : mkvmerge v43.0.0 ('The Quartermaster') 64-bit
Writing library : libebml v1.3.10 + libmatroska v1.5.2

Video
ID : 1
Format : AVC
Format/Info : Advanced Video Codec
Format profile : High@L4.1
Format settings : CABAC / 9 Ref Frames
Format settings, CABAC : Yes
Format settings, RefFrames : 9 frames
Codec ID : V_MPEG4/ISO/AVC
Duration : 22 min 31 s
Bit rate : 3 132 kb/s
Width : 1 280 pixels
Height : 720 pixels
Display aspect ratio : 16:9
Frame rate mode : Constant
Frame rate : 23.976 (24000/1001) FPS
Color space : YUV
Chroma subsampling : 4:2:0
Bit depth : 8 bits
Scan type : Progressive
Bits/(Pixel*Frame) : 0.142
Stream size : 505 MiB (87%)
Writing library : x264 core 160 r3000 33f9e14
Encoding settings : cabac=1 / ref=9 / deblock=1:1:1 / analyse=0x3:0x113 / me=hex / subme=8 / psy=1 / psy_rd=0.40:0.00 / mixed_ref=1 / me_range=16 / chroma_me=1 / trellis=2 / 8x8dct=1 / cqm=0 / deadzone=21,11 / fast_pskip=1 / chroma_qp_offset=-2 / threads=12 / lookahead_threads=2 / sliced_threads=0 / nr=0 / decimate=1 / interlaced=0 / bluray_compat=0 / constrained_intra=0 / bframes=5 / b_pyramid=2 / b_adapt=1 / b_bias=0 / direct=3 / weightb=1 / open_gop=0 / weightp=2 / keyint=250 / keyint_min=23 / scenecut=40 / intra_refresh=0 / rc_lookahead=50 / rc=crf / mbtree=1 / crf=18.0 / qcomp=0.60 / qpmin=0 / qpmax=69 / qpstep=4 / ip_ratio=1.40 / aq=1:0.60
Default : Yes
Forced : No

Audio
ID : 2
Format : AC-3
Format/Info : Audio Coding 3
Format settings, Endianness : Big
Codec ID : A_AC3
Duration : 22 min 31 s
Bit rate mode : Constant
Bit rate : 448 kb/s
Channel(s) : 6 channels
Channel positions : Front: L C R, Side: L R, LFE
Sampling rate : 48.0 kHz
Frame rate : 31.250 FPS (1536 SPF)
Bit depth : 16 bits
Compression mode : Lossy
Stream size : 72.2 MiB (13%)
Language : English
Service kind : Complete Main
Default : Yes
Forced : No

Text
ID : 3
Format : UTF-8
Codec ID : S_TEXT/UTF8
Codec ID/Info : UTF-8 Plain Text
Duration : 22 min 23 s
Bit rate : 156 b/s
Count of elements : 552
Stream size : 25.7 KiB (0%)
Language : English
Default : No
Forced : No





Rick and Morty S04E09


Rick and Morty S04E09


Rick and Morty S04E09


Rick and Morty S04E09


Rick and Morty S04E09

All episodes