Featured TV Shows


Rick and Morty S04E09

Posted By: Tavaz
1080p (FullHD) / WEB-DL IMDb
Rick and Morty S04E09

Rick and Morty S04E09
WEB-DL | MKV | 1920x1080 | English | H264 @ 3229 kbps | E-AC-3 @ 640 kbps | 22 min 35 s | 625 MiB
Subtitles: English
Genre: Animation, Comedy


Rick is a mentally-unbalanced but scientifically-gifted old man who has recently reconnected with his family. He spends most of his time involving his young grandson Morty in dangerous, outlandish adventures throughout space and alternate universes. Compounded with Morty's already unstable family life, these events cause Morty much distress at home and school.

058285207ecf4fadbf0bc718dc4efd8f.mkv (625.4 MB)



General
Unique ID : 318535202962878383466893237172493857883 (0xEFA3A608DD68BCB7A13A47031213B45B)
Complete name : ./058285207ecf4fadbf0bc718dc4efd8f.mkv
Format : Matroska
Format version : Version 4 / Version 2
File size : 625 MiB
Duration : 22 min 35 s
Overall bit rate : 3 872 kb/s
Encoded date : UTC 2020-05-25 14:34:20
Writing application : mkvmerge v46.0.0 ('No Deeper Escape') 64-bit
Writing library : libebml v1.3.10 + libmatroska v1.5.2

Video
ID : 1
Format : AVC
Format/Info : Advanced Video Codec
Format profile : High@L4
Format settings : CABAC / 4 Ref Frames
Format settings, CABAC : Yes
Format settings, RefFrames : 4 frames
Codec ID : V_MPEG4/ISO/AVC
Duration : 22 min 35 s
Bit rate : 3 230 kb/s
Width : 1 920 pixels
Height : 1 080 pixels
Display aspect ratio : 16:9
Frame rate mode : Constant
Frame rate : 23.976 (24000/1001) FPS
Color space : YUV
Chroma subsampling : 4:2:0
Bit depth : 8 bits
Scan type : Progressive
Bits/(Pixel*Frame) : 0.065
Stream size : 522 MiB (83%)
Default : Yes
Forced : No
Color range : Limited
Color primaries : BT.709
Transfer characteristics : BT.709
Matrix coefficients : BT.709

Audio
ID : 2
Format : E-AC-3
Format/Info : Enhanced Audio Coding 3
Format settings, Endianness : Big
Codec ID : A_EAC3
Duration : 22 min 35 s
Bit rate mode : Constant
Bit rate : 640 kb/s
Channel(s) : 6 channels
Channel positions : Front: L C R, Side: L R, LFE
Sampling rate : 48.0 kHz
Frame rate : 187.500 FPS (256 SPF)
Compression mode : Lossy
Stream size : 103 MiB (17%)
Language : English
Service kind : Complete Main
Default : Yes
Forced : No

Text
ID : 3
Format : UTF-8
Codec ID : S_TEXT/UTF8
Codec ID/Info : UTF-8 Plain Text
Duration : 22 min 24 s
Bit rate : 110 b/s
Count of elements : 547
Stream size : 18.1 KiB (0%)
Title : SDH
Language : English
Default : No
Forced : No





Rick and Morty S04E09


Rick and Morty S04E09


Rick and Morty S04E09


Rick and Morty S04E09


Rick and Morty S04E09

All episodes