Index
# A B C D E F G H I J K L M N O P Q R S T U V W Y Z
Tags
Language
Tags

Featured TV Shows


Rick and Morty S04E10

Posted By: Tavaz
1080p (FullHD) / WEBRip IMDb
Rick and Morty S04E10

Rick and Morty S04E10
WEBRip | MKV | 1920x1080 | English | H264 @ 3999 kbps | AAC @ 125 kbps | 22 min 48 s | 674 MiB
Subtitles: English
Genre: Animation, Comedy


Rick is a mentally-unbalanced but scientifically-gifted old man who has recently reconnected with his family. He spends most of his time involving his young grandson Morty in dangerous, outlandish adventures throughout space and alternate universes. Compounded with Morty's already unstable family life, these events cause Morty much distress at home and school.

24b34d75a0024ec7beabc2244f211828.mkv (673.6 MB)



General
Unique ID : 17380927504898091917650518708294989446 (0xD1371E348115EDF53FFD9CB8DBF3686)
Complete name : ./24b34d75a0024ec7beabc2244f211828.mkv
Format : Matroska
Format version : Version 4 / Version 2
File size : 674 MiB
Duration : 22 min 48 s
Overall bit rate : 4 127 kb/s
Encoded date : UTC 2020-06-01 03:40:33
Writing application : mkvmerge v47.0.0 ('Black Flag') 64-bit
Writing library : libebml v1.3.10 + libmatroska v1.5.2

Video
ID : 1
Format : AVC
Format/Info : Advanced Video Codec
Format profile : High@L4.1
Format settings : CABAC / 4 Ref Frames
Format settings, CABAC : Yes
Format settings, RefFrames : 4 frames
Codec ID : V_MPEG4/ISO/AVC
Duration : 22 min 48 s
Bit rate : 3 999 kb/s
Width : 1 920 pixels
Height : 1 080 pixels
Display aspect ratio : 16:9
Frame rate mode : Constant
Frame rate : 23.976 (24000/1001) FPS
Color space : YUV
Chroma subsampling : 4:2:0
Bit depth : 8 bits
Scan type : Progressive
Bits/(Pixel*Frame) : 0.080
Stream size : 653 MiB (97%)
Writing library : x264 core 160 r3000 33f9e14
Encoding settings : cabac=1 / ref=4 / deblock=1:1:1 / analyse=0x3:0x133 / me=umh / subme=9 / psy=1 / psy_rd=1.00:0.00 / mixed_ref=1 / me_range=16 / chroma_me=1 / trellis=2 / 8x8dct=1 / cqm=0 / deadzone=21,11 / fast_pskip=1 / chroma_qp_offset=-2 / threads=48 / lookahead_threads=4 / sliced_threads=0 / nr=0 / decimate=1 / interlaced=0 / bluray_compat=0 / constrained_intra=0 / bframes=3 / b_pyramid=2 / b_adapt=2 / b_bias=0 / direct=3 / weightb=1 / open_gop=0 / weightp=2 / keyint=250 / keyint_min=23 / scenecut=40 / intra_refresh=0 / rc_lookahead=60 / rc=crf / mbtree=1 / crf=17.0 / qcomp=0.60 / qpmin=0 / qpmax=69 / qpstep=4 / ip_ratio=1.40 / aq=3:1.00
Default : Yes
Forced : No
Color range : Limited
Matrix coefficients : BT.709

Audio
ID : 2
Format : AAC
Format/Info : Advanced Audio Codec
Format profile : LC
Codec ID : A_AAC-2
Duration : 22 min 48 s
Bit rate : 126 kb/s
Channel(s) : 2 channels
Channel positions : Front: L R
Sampling rate : 44.1 kHz
Frame rate : 43.066 FPS (1024 SPF)
Compression mode : Lossy
Stream size : 20.5 MiB (3%)
Title : English
Language : English
Default : Yes
Forced : No

Text
ID : 3
Format : UTF-8
Codec ID : S_TEXT/UTF8
Codec ID/Info : UTF-8 Plain Text
Duration : 22 min 47 s
Bit rate : 152 b/s
Count of elements : 597
Stream size : 25.4 KiB (0%)
Title : English (SDH)
Language : English
Default : No
Forced : No





Rick and Morty S04E10


Rick and Morty S04E10


Rick and Morty S04E10


Rick and Morty S04E10


Rick and Morty S04E10

All episodes