Index
# A B C D E F G H I J K L M N O P Q R S T U V W Y Z
Tags
Language
Tags

Featured TV Shows


Rick and Morty S05E01

Posted By: Tavaz
1080p (FullHD) / WEBRip IMDb
Rick and Morty S05E01

Rick and Morty S05E01
WEBRip | MKV | 1920x1080 | English | H264 @ 3328 kbps | AC-3 @ 384 kbps | 21 min 22 s | 568 MiB
Subtitles: Suomi, Svenska, Dansk, English
Genre: Animation, Comedy


Rick is a mentally-unbalanced but scientifically-gifted old man who has recently reconnected with his family. He spends most of his time involving his young grandson Morty in dangerous, outlandish adventures throughout space and alternate universes. Compounded with Morty's already unstable family life, these events cause Morty much distress at home and school.

b93ea6a498fdec61d070254b728f7840.mkv (567.8 MB)



General
Unique ID : 112821622371696270960067533503037462502 (0x54E0A772713617A6A101F14CEEBC57E6)
Complete name : ./b93ea6a498fdec61d070254b728f7840.mkv
Format : Matroska
Format version : Version 4 / Version 2
File size : 568 MiB
Duration : 21 min 22 s
Overall bit rate mode : Variable
Overall bit rate : 3 715 kb/s
Encoded date : UTC 2021-06-21 04:57:50
Writing application : mkvmerge v30.1.0 ('Forever And More') 64-bit
Writing library : libebml v1.3.6 + libmatroska v1.4.9

Video
ID : 1
Format : AVC
Format/Info : Advanced Video Codec
Format profile : High@L4
Format settings : CABAC / 4 Ref Frames
Format settings, CABAC : Yes
Format settings, RefFrames : 4 frames
Codec ID : V_MPEG4/ISO/AVC
Duration : 21 min 22 s
Bit rate mode : Variable
Bit rate : 3 328 kb/s
Maximum bit rate : 5 100 kb/s
Width : 1 920 pixels
Height : 1 080 pixels
Display aspect ratio : 16:9
Frame rate mode : Constant
Frame rate : 25.000 FPS
Color space : YUV
Chroma subsampling : 4:2:0
Bit depth : 8 bits
Scan type : Progressive
Bits/(Pixel*Frame) : 0.064
Stream size : 509 MiB (90%)
Default : Yes
Forced : No

Audio
ID : 2
Format : AC-3
Format/Info : Audio Coding 3
Format settings, Endianness : Big
Codec ID : A_AC3
Duration : 21 min 22 s
Bit rate mode : Constant
Bit rate : 384 kb/s
Channel(s) : 6 channels
Channel positions : Front: L C R, Side: L R, LFE
Sampling rate : 48.0 kHz
Frame rate : 31.250 FPS (1536 SPF)
Bit depth : 16 bits
Compression mode : Lossy
Stream size : 58.7 MiB (10%)
Language : English
Service kind : Complete Main
Default : Yes
Forced : No

Text #1
ID : 3
Format : UTF-8
Codec ID : S_TEXT/UTF8
Codec ID/Info : UTF-8 Plain Text
Duration : 21 min 16 s
Bit rate : 83 b/s
Count of elements : 327
Stream size : 13.1 KiB (0%)
Language : Danish
Default : Yes
Forced : No

Text #2
ID : 4
Format : UTF-8
Codec ID : S_TEXT/UTF8
Codec ID/Info : UTF-8 Plain Text
Duration : 21 min 7 s
Bit rate : 110 b/s
Count of elements : 443
Stream size : 17.2 KiB (0%)
Language : English
Default : No
Forced : No

Text #3
ID : 5
Format : UTF-8
Codec ID : S_TEXT/UTF8
Codec ID/Info : UTF-8 Plain Text
Duration : 21 min 16 s
Bit rate : 90 b/s
Count of elements : 320
Stream size : 14.2 KiB (0%)
Language : Finnish
Default : No
Forced : No

Text #4
ID : 6
Format : UTF-8
Codec ID : S_TEXT/UTF8
Codec ID/Info : UTF-8 Plain Text
Duration : 21 min 13 s
Bit rate : 93 b/s
Count of elements : 363
Stream size : 14.5 KiB (0%)
Language : Norwegian
Default : No
Forced : No

Text #5
ID : 7
Format : UTF-8
Codec ID : S_TEXT/UTF8
Codec ID/Info : UTF-8 Plain Text
Duration : 21 min 7 s
Bit rate : 102 b/s
Count of elements : 367
Stream size : 15.9 KiB (0%)
Language : Swedish
Default : No
Forced : No





Rick and Morty S05E01


Rick and Morty S05E01


Rick and Morty S05E01


Rick and Morty S05E01


Rick and Morty S05E01

All episodes