Index
# A B C D E F G H I J K L M N O P Q R S T U V W Y Z
Tags
Language
Tags

Featured TV Shows


Rick and Morty S05E04

Posted By: Tavaz
720p (HD) / WEBRip IMDb
Rick and Morty S05E04

Rick and Morty S05E04
WEBRip | MKV | 1280x718 | English | H264 @ 2711 kbps | AC-3 @ 384 kbps | 22 min 13 s | 492 MiB
Subtitles: English
Genre: Animation, Comedy


Rick is a mentally-unbalanced but scientifically-gifted old man who has recently reconnected with his family. He spends most of his time involving his young grandson Morty in dangerous, outlandish adventures throughout space and alternate universes. Compounded with Morty's already unstable family life, these events cause Morty much distress at home and school.

26733b66f4454241a8acfe0541a907f5.mkv (492.4 MB)



General
Unique ID : 313386013998804349143698120884214089461 (0xEBC3F36AFCBAAFFCD9688AA126D8C6F5)
Complete name : ./26733b66f4454241a8acfe0541a907f5.mkv
Format : Matroska
Format version : Version 4 / Version 2
File size : 492 MiB
Duration : 22 min 13 s
Overall bit rate : 3 098 kb/s
Encoded date : UTC 2021-07-12 07:05:15
Writing application : mkvmerge v57.0.0 ('Till The End') 64-bit
Writing library : libebml v1.4.2 + libmatroska v1.6.4

Video
ID : 1
Format : AVC
Format/Info : Advanced Video Codec
Format profile : High@L3.1
Format settings : CABAC / 5 Ref Frames
Format settings, CABAC : Yes
Format settings, RefFrames : 5 frames
Codec ID : V_MPEG4/ISO/AVC
Duration : 22 min 13 s
Bit rate : 2 712 kb/s
Width : 1 280 pixels
Height : 718 pixels
Display aspect ratio : 16:9
Frame rate mode : Constant
Frame rate : 23.976 (24000/1001) FPS
Color space : YUV
Chroma subsampling : 4:2:0
Bit depth : 8 bits
Scan type : Progressive
Bits/(Pixel*Frame) : 0.123
Stream size : 431 MiB (88%)
Default : Yes
Forced : No
Color range : Limited
Color primaries : BT.709
Transfer characteristics : BT.709
Matrix coefficients : BT.709

Audio
ID : 2
Format : AC-3
Format/Info : Audio Coding 3
Format settings, Endianness : Big
Codec ID : A_AC3
Duration : 22 min 13 s
Bit rate mode : Constant
Bit rate : 384 kb/s
Channel(s) : 6 channels
Channel positions : Front: L C R, Side: L R, LFE
Sampling rate : 48.0 kHz
Frame rate : 31.250 FPS (1536 SPF)
Bit depth : 16 bits
Compression mode : Lossy
Stream size : 61.0 MiB (12%)
Title : English
Language : English
Service kind : Complete Main
Default : Yes
Forced : No

Text #1
ID : 3
Format : UTF-8
Codec ID : S_TEXT/UTF8
Codec ID/Info : UTF-8 Plain Text
Duration : 22 min 0 s
Bit rate : 110 b/s
Count of elements : 530
Stream size : 17.8 KiB (0%)
Title : English
Language : English
Default : No
Forced : No

Text #2
ID : 4
Format : UTF-8
Codec ID : S_TEXT/UTF8
Codec ID/Info : UTF-8 Plain Text
Duration : 22 min 5 s
Bit rate : 119 b/s
Count of elements : 594
Stream size : 19.4 KiB (0%)
Title : English SDH
Language : English
Default : No
Forced : No





Rick and Morty S05E04


Rick and Morty S05E04


Rick and Morty S05E04


Rick and Morty S05E04


Rick and Morty S05E04

All episodes