Index
# A B C D E F G H I J K L M N O P Q R S T U V W Y Z
Tags
Language
Tags

Featured TV Shows


The Loch S05E06

Posted By: Tavaz
1080p (FullHD) / WEB-DL IMDb
The Loch S05E06

The Loch S05E06
WEB-DL | MKV | 1920x1080 | English | H264 @ 10560 kbps | E-AC-3 @ 224 kbps | 1 h 25 min | 6.41 GiB
Subtitles: English
Genre: Crime, Drama

The search for a serial killer becomes a matter of life and death for detective Annie Redford, who is trying to cope with her first murder case.

0d02f3aa65b247d59bf6c14fb499c17e.mkv (6.4 GB)



General
Unique ID : 101504783846578380812741982369432222719 (0x4C5D1C3AB62B5FADCB84A6DC004C3BFF)
Complete name : ./0d02f3aa65b247d59bf6c14fb499c17e.mkv
Format : Matroska
Format version : Version 4 / Version 2
File size : 6.41 GiB
Duration : 1 h 25 min
Overall bit rate mode : Variable
Overall bit rate : 10.8 Mb/s
Encoded date : UTC 2018-02-01 13:52:17
Writing application : mkvmerge v8.8.0 ('Wind at my back') 64bit
Writing library : libebml v1.3.3 + libmatroska v1.4.4

Video
ID : 1
Format : AVC
Format/Info : Advanced Video Codec
Format profile : High@L4
Format settings : CABAC / 4 Ref Frames
Format settings, CABAC : Yes
Format settings, RefFrames : 4 frames
Codec ID : V_MPEG4/ISO/AVC
Duration : 1 h 25 min
Bit rate mode : Variable
Bit rate : 10.6 Mb/s
Maximum bit rate : 15.0 Mb/s
Width : 1 920 pixels
Height : 1 080 pixels
Display aspect ratio : 16:9
Frame rate mode : Constant
Frame rate : 25.000 FPS
Color space : YUV
Chroma subsampling : 4:2:0
Bit depth : 8 bits
Scan type : Progressive
Bits/(Pixel*Frame) : 0.204
Stream size : 6.28 GiB (98%)
Default : Yes
Forced : No
Color range : Limited
Color primaries : BT.709
Transfer characteristics : BT.709
Matrix coefficients : BT.709

Audio
ID : 2
Format : E-AC-3
Format/Info : Enhanced Audio Coding 3
Format settings, Endianness : Big
Codec ID : A_EAC3
Duration : 1 h 25 min
Bit rate mode : Constant
Bit rate : 224 kb/s
Channel(s) : 2 channels
Channel positions : Front: L R
Sampling rate : 48.0 kHz
Frame rate : 187.500 FPS (256 SPF)
Compression mode : Lossy
Stream size : 136 MiB (2%)
Language : English
Service kind : Complete Main
Default : Yes
Forced : No

Text #1
ID : 3
Format : UTF-8
Codec ID : S_TEXT/UTF8
Codec ID/Info : UTF-8 Plain Text
Duration : 1 h 25 min
Bit rate : 94 b/s
Count of elements : 1537
Stream size : 58.9 KiB (0%)
Language : English
Default : No
Forced : No

Text #2
ID : 4
Format : UTF-8
Codec ID : S_TEXT/UTF8
Codec ID/Info : UTF-8 Plain Text
Duration : 1 h 25 min
Bit rate : 95 b/s
Count of elements : 1559
Stream size : 59.4 KiB (0%)
Title : SDH
Language : English
Default : No
Forced : No





The Loch S05E06


The Loch S05E06


The Loch S05E06


The Loch S05E06


The Loch S05E06

All episodes