Featured TV Shows


Room 104 S04E02

Posted By: Tavaz
720p (HD) / WEBRip IMDb
Room 104 S04E02

Room 104 S04E02
WEBRip | MKV | 1280x720 | English | H264 @ 2510 kbps | E-AC-3 @ 640 kbps | 25 min 48 s | 582 MiB
Subtitles: English
Genre: Comedy, Drama, Mystery


An anthology series set in a single hotel room, where every guest who comes to stay reveals a unique set of circumstances and quirks.

17f2fe1992c0441c920ff13b3af4d29d.mkv (582.2 MB)



General
Unique ID : 193499658244618086657235679640749737533 (0x9192ADB90140B3620C2264461F12063D)
Complete name : ./17f2fe1992c0441c920ff13b3af4d29d.mkv
Format : Matroska
Format version : Version 4 / Version 2
File size : 582 MiB
Duration : 25 min 48 s
Overall bit rate : 3 153 kb/s
Encoded date : UTC 2020-08-01 03:01:32
Writing application : mkvmerge v45.0.0 ('Heaven in Pennies') 64-bit
Writing library : libebml v1.3.10 + libmatroska v1.5.2

Video
ID : 1
Format : AVC
Format/Info : Advanced Video Codec
Format profile : High@L3.1
Format settings : CABAC / 4 Ref Frames
Format settings, CABAC : Yes
Format settings, RefFrames : 4 frames
Codec ID : V_MPEG4/ISO/AVC
Duration : 25 min 48 s
Bit rate mode : Constant
Bit rate : 2 511 kb/s
Nominal bit rate : 6 000 kb/s
Width : 1 280 pixels
Height : 720 pixels
Display aspect ratio : 16:9
Frame rate mode : Constant
Frame rate : 23.976 (23976/1000) FPS
Original frame rate : 23.976 (24000/1001) FPS
Color space : YUV
Chroma subsampling : 4:2:0
Bit depth : 8 bits
Scan type : Progressive
Bits/(Pixel*Frame) : 0.114
Stream size : 464 MiB (80%)
Default : Yes
Forced : No
Color range : Limited
Color primaries : BT.709
Transfer characteristics : BT.709
Matrix coefficients : BT.709

Audio
ID : 2
Format : E-AC-3
Format/Info : Enhanced Audio Coding 3
Format settings, Endianness : Big
Codec ID : A_EAC3
Duration : 25 min 48 s
Bit rate mode : Constant
Bit rate : 640 kb/s
Channel(s) : 6 channels
Channel positions : Front: L C R, Side: L R, LFE
Sampling rate : 48.0 kHz
Frame rate : 187.500 FPS (256 SPF)
Compression mode : Lossy
Delay relative to video : 24 ms
Stream size : 118 MiB (20%)
Language : English
Service kind : Complete Main
Default : Yes
Forced : No

Text
ID : 3
Format : UTF-8
Codec ID : S_TEXT/UTF8
Codec ID/Info : UTF-8 Plain Text
Duration : 25 min 39 s
Bit rate : 71 b/s
Count of elements : 453
Stream size : 13.5 KiB (0%)
Language : English
Default : No
Forced : No





Room 104 S04E02


Room 104 S04E02


Room 104 S04E02


Room 104 S04E02


Room 104 S04E02

All episodes