Featured TV Shows


Room 104 S04E02

Posted By: Tavaz
1080p (FullHD) / WEBRip IMDb
Room 104 S04E02

Room 104 S04E02
WEBRip | MKV | 1920x1080 | Français / English | H264 @ 5816 kbps | E-AC-3 @ 640 kbps | 23 min 1 s | 1.14 GiB
Subtitles: Français
Genre: Comedy, Drama, Mystery


An anthology series set in a single hotel room, where every guest who comes to stay reveals a unique set of circumstances and quirks.

baeeef02ee5c4b22b65cb906dd14cd20.mkv (1.1 GB)



General
Unique ID : 269047502973006244283709050701554771449 (0xCA68AA0BE241D6F1B30B401C83F5E5F9)
Complete name : ./baeeef02ee5c4b22b65cb906dd14cd20.mkv
Format : Matroska
Format version : Version 4 / Version 2
File size : 1.14 GiB
Duration : 23 min 1 s
Overall bit rate : 7 098 kb/s
Encoded date : UTC 2020-08-01 14:36:59
Writing application : mkvmerge v48.0.0 ('Fortress Around Your Heart') 64-bit
Writing library : libebml v1.4.0 + libmatroska v1.6.0

Video
ID : 1
Format : AVC
Format/Info : Advanced Video Codec
Format profile : High@L4
Format settings : CABAC / 4 Ref Frames
Format settings, CABAC : Yes
Format settings, RefFrames : 4 frames
Codec ID : V_MPEG4/ISO/AVC
Duration : 23 min 1 s
Bit rate mode : Constant
Bit rate : 5 816 kb/s
Nominal bit rate : 10 000 kb/s
Width : 1 920 pixels
Height : 1 080 pixels
Display aspect ratio : 16:9
Frame rate mode : Constant
Frame rate : 25.000 FPS
Color space : YUV
Chroma subsampling : 4:2:0
Bit depth : 8 bits
Scan type : Progressive
Bits/(Pixel*Frame) : 0.112
Stream size : 958 MiB (82%)
Default : Yes
Forced : No
Color range : Limited
Color primaries : BT.709
Transfer characteristics : BT.709
Matrix coefficients : BT.709

Audio #1
ID : 2
Format : E-AC-3
Format/Info : Enhanced Audio Coding 3
Format settings, Endianness : Big
Codec ID : A_EAC3
Duration : 23 min 1 s
Bit rate mode : Constant
Bit rate : 640 kb/s
Channel(s) : 6 channels
Channel positions : Front: L C R, Side: L R, LFE
Sampling rate : 48.0 kHz
Frame rate : 187.500 FPS (256 SPF)
Compression mode : Lossy
Stream size : 105 MiB (9%)
Title : French
Language : French
Service kind : Complete Main
Default : Yes
Forced : No

Audio #2
ID : 3
Format : E-AC-3
Format/Info : Enhanced Audio Coding 3
Format settings, Endianness : Big
Codec ID : A_EAC3
Duration : 23 min 1 s
Bit rate mode : Constant
Bit rate : 640 kb/s
Channel(s) : 6 channels
Channel positions : Front: L C R, Side: L R, LFE
Sampling rate : 48.0 kHz
Frame rate : 187.500 FPS (256 SPF)
Compression mode : Lossy
Stream size : 105 MiB (9%)
Title : English
Language : English
Service kind : Complete Main
Default : No
Forced : No

Text
ID : 4
Format : UTF-8
Codec ID : S_TEXT/UTF8
Codec ID/Info : UTF-8 Plain Text
Duration : 21 min 27 s
Bit rate : 41 b/s
Count of elements : 279
Stream size : 6.55 KiB (0%)
Title : French
Language : French
Default : No
Forced : No





Room 104 S04E02


Room 104 S04E02


Room 104 S04E02


Room 104 S04E02


Room 104 S04E02

All episodes