Featured TV Shows


Mum S03E04

Posted By: Tavaz
Mum S03E04

Mum S03E04
MOV | 720x404 | H264 @ 1301 kbps | AAC @ 221 kbps | 44 min 9 s | 483 MiB
Genre: Comedy

A comedy about a mother at a milestone in her life. We follow her and her family through a year of new beginnings as she rebuilds her life following the death of her husband. Mum is joined by her supportive life-long friend Michael. Through a year of new beginnings she rebuilds her life surrounded by her family: son Jason and his girlfriend Kelly; her brother Derek and his new partner, Pauline; and her in-laws.

1d3dabccaac14d99baef1d10bc546e45.mp4 (483.1 MB)



General
Complete name : ./1d3dabccaac14d99baef1d10bc546e45.mp4
Format : MPEG-4
Format profile : Base Media / Version 2
Codec ID : mp42 (isom/iso2/avc1/mp41)
File size : 483 MiB
Duration : 44 min 9 s
Overall bit rate mode : Variable
Overall bit rate : 1 530 kb/s
Encoded date : UTC 2019-02-14 13:51:03
Tagged date : UTC 2019-02-14 13:51:03
Writing application : HandBrake 1.1.2 2018090500

Video
ID : 1
Format : AVC
Format/Info : Advanced Video Codec
Format profile : High@L4
Format settings : CABAC / 4 Ref Frames
Format settings, CABAC : Yes
Format settings, RefFrames : 4 frames
Codec ID : avc1
Codec ID/Info : Advanced Video Coding
Duration : 44 min 9 s
Bit rate : 1 302 kb/s
Width : 720 pixels
Height : 404 pixels
Display aspect ratio : 16:9
Frame rate mode : Constant
Frame rate : 25.000 FPS
Color space : YUV
Chroma subsampling : 4:2:0
Bit depth : 8 bits
Scan type : Progressive
Bits/(Pixel*Frame) : 0.179
Stream size : 411 MiB (85%)
Writing library : x264 core 155 r2901 7d0ff22
Encoding settings : cabac=1 / ref=2 / deblock=1:0:0 / analyse=0x3:0x113 / me=hex / subme=6 / psy=1 / psy_rd=1.00:0.00 / mixed_ref=1 / me_range=16 / chroma_me=1 / trellis=1 / 8x8dct=1 / cqm=0 / deadzone=21,11 / fast_pskip=1 / chroma_qp_offset=-2 / threads=9 / lookahead_threads=1 / sliced_threads=0 / nr=0 / decimate=1 / interlaced=0 / bluray_compat=0 / constrained_intra=0 / bframes=3 / b_pyramid=2 / b_adapt=1 / b_bias=0 / direct=1 / weightb=1 / open_gop=0 / weightp=1 / keyint=250 / keyint_min=25 / scenecut=40 / intra_refresh=0 / rc_lookahead=30 / rc=crf / mbtree=1 / crf=20.0 / qcomp=0.60 / qpmin=0 / qpmax=69 / qpstep=4 / vbv_maxrate=25000 / vbv_bufsize=31250 / crf_max=0.0 / nal_hrd=none / filler=0 / ip_ratio=1.40 / aq=1:1.00
Encoded date : UTC 2019-02-14 13:51:03
Tagged date : UTC 2019-02-14 13:51:03
Color range : Limited
Color primaries : BT.709
Transfer characteristics : BT.709
Matrix coefficients : BT.709

Audio
ID : 2
Format : AAC
Format/Info : Advanced Audio Codec
Format profile : LC
Codec ID : mp4a-40-2
Duration : 44 min 9 s
Bit rate mode : Variable
Bit rate : 221 kb/s
Channel(s) : 2 channels
Channel positions : Front: L R
Sampling rate : 48.0 kHz
Frame rate : 46.875 FPS (1024 SPF)
Compression mode : Lossy
Stream size : 69.9 MiB (14%)
Title : Stereo / Stereo
Default : Yes
Alternate group : 1
Encoded date : UTC 2019-02-14 13:51:03
Tagged date : UTC 2019-02-14 13:51:03





Mum S03E04


Mum S03E04


Mum S03E04


Mum S03E04


Mum S03E04

All episodes