Featured TV Shows


S.W.A.T. S01E20

Posted By: Tavaz
SD / WEB-DL IMDb
S.W.A.T. S01E20

S.W.A.T. S01E20
WEB-DL | MKV | 720x404 | German / English | H264 @ 1090 kbps | AAC @ 120 kbps | 41 min 25 s | 394 MiB
Genre: Krimi, Drama

Die Serie dreht sich um einen lokal verwurzelten S.W.A.T. Leutnant, der im Spannungsfeld zwischen der Loyalität zur Straße und seinen polizeilichen Pflichten mit seinem trainierten Team die letzte Bastion der Verbrechensbekämpfung in Los Angeles darstellt.

Was.die.VAVOO.BOX.alles.kann.erfaehrst.Du.in.diesem.Video.m4v (32.2 MB)
Was.die.VAVOO.BOX.alles.kann.erfaehrst.Du.in.diesem.Video(1).m4v (32.2 MB)
tvs-swat-ded-dl-azhd-x264-120.mkv (394.2 MB)
Was.die.VAVOO.BOX.alles.kann.erfaehrst.Du.in.diesem.Video(2).m4v (32.2 MB)



General
Unique ID : 230640259575874636059516147329956601295 (0xAD83B2BF30E149D301F86DB339605DCF)
Complete name : ./S.W.A.T.2017.S01E20.Offene.Rechnung.German.Dubbed.DL.AmazonHD.x264-TVS/tvs-swat-ded-dl-azhd-x264-120.mkv
Format : Matroska
Format version : Version 4 / Version 2
File size : 394 MiB
Duration : 41 min 25 s
Overall bit rate : 1 330 kb/s
Encoded date : UTC 2018-06-11 21:38:19
Writing application : mkvmerge v23.0.0 ('The Bride Said No') 64-bit
Writing library : libebml v1.3.6 + libmatroska v1.4.9

Video
ID : 1
Format : AVC
Format/Info : Advanced Video Codec
Format profile : High@L3.1
Format settings : CABAC / 15 Ref Frames
Format settings, CABAC : Yes
Format settings, RefFrames : 15 frames
Codec ID : V_MPEG4/ISO/AVC
Duration : 41 min 25 s
Bit rate : 1 091 kb/s
Width : 720 pixels
Height : 404 pixels
Display aspect ratio : 16:9
Frame rate mode : Constant
Frame rate : 25.000 FPS
Color space : YUV
Chroma subsampling : 4:2:0
Bit depth : 8 bits
Scan type : Progressive
Bits/(Pixel*Frame) : 0.150
Stream size : 323 MiB (82%)
Writing library : x264 core 155 r2901 7d0ff22
Encoding settings : cabac=1 / ref=15 / deblock=1:0:0 / analyse=0x3:0x133 / me=umh / subme=10 / psy=1 / psy_rd=1.00:0.00 / mixed_ref=1 / me_range=24 / chroma_me=1 / trellis=2 / 8x8dct=1 / cqm=0 / deadzone=21,11 / fast_pskip=0 / chroma_qp_offset=-2 / threads=13 / lookahead_threads=2 / sliced_threads=0 / nr=0 / decimate=0 / interlaced=0 / bluray_compat=0 / constrained_intra=0 / bframes=8 / b_pyramid=2 / b_adapt=2 / b_bias=0 / direct=3 / weightb=1 / open_gop=0 / weightp=2 / keyint=250 / keyint_min=25 / scenecut=40 / intra_refresh=0 / rc_lookahead=60 / rc=crf / mbtree=1 / crf=17.0 / qcomp=0.60 / qpmin=0 / qpmax=69 / qpstep=4 / ip_ratio=1.40 / aq=2:1.00
Default : Yes
Forced : No
Color range : Limited
Color primaries : BT.709
Transfer characteristics : BT.709
Matrix coefficients : BT.709

Audio #1
ID : 2
Format : AAC
Format/Info : Advanced Audio Codec
Format profile : LC
Codec ID : A_AAC-2
Duration : 41 min 25 s
Bit rate : 121 kb/s
Channel(s) : 2 channels
Channel positions : Front: L R
Sampling rate : 48.0 kHz
Frame rate : 46.875 FPS (1024 SPF)
Compression mode : Lossy
Delay relative to video : 9 ms
Stream size : 35.8 MiB (9%)
Language : German
Default : Yes
Forced : No

Audio #2
ID : 3
Format : AAC
Format/Info : Advanced Audio Codec
Format profile : LC
Codec ID : A_AAC-2
Duration : 41 min 25 s
Bit rate : 116 kb/s
Channel(s) : 2 channels
Channel positions : Front: L R
Sampling rate : 48.0 kHz
Frame rate : 46.875 FPS (1024 SPF)
Compression mode : Lossy
Delay relative to video : 9 ms
Stream size : 34.3 MiB (9%)
Language : English
Default : No
Forced : No





S.W.A.T. S01E20


S.W.A.T. S01E20


S.W.A.T. S01E20


S.W.A.T. S01E20


S.W.A.T. S01E20

All episodes