Featured TV Shows


S.W.A.T. S02E14

Posted By: Tavaz
SD / HDTV IMDb
S.W.A.T. S02E14

S.W.A.T. S02E14
HDTV | MKV | 720x404 | German | H264 @ 1035 kbps | AC-3 @ 192 kbps | 40 min 22 s | 355 MiB
Genre: Krimi, Drama

Die Serie dreht sich um einen lokal verwurzelten S.W.A.T. Leutnant, der im Spannungsfeld zwischen der Loyalität zur Straße und seinen polizeilichen Pflichten mit seinem trainierten Team die letzte Bastion der Verbrechensbekämpfung in Los Angeles darstellt.

SW S02E14.mkv (355.0 MB)



General
Unique ID : 1691745148303358798494232004567036555 (0x145D179BED92F5ABF29CE56C950F28B)
Complete name : ./S Spezialeinheit in Los Angeles S02E14 German/SW S02E14.mkv
Format : Matroska
Format version : Version 2
File size : 355 MiB
Duration : 40 min 22 s
Overall bit rate : 1 229 kb/s
Encoded date : UTC 2019-03-18 20:57:51
Writing application : mkvmerge v32.0.0 ('Astral Progressions') 64-bit
Writing library : libebml v1.3.7 + libmatroska v1.5.0

Video
ID : 1
Format : AVC
Format/Info : Advanced Video Codec
Format profile : High@L3.1
Format settings : CABAC / 5 Ref Frames
Format settings, CABAC : Yes
Format settings, RefFrames : 5 frames
Codec ID : V_MPEG4/ISO/AVC
Duration : 40 min 22 s
Bit rate : 1 036 kb/s
Width : 720 pixels
Height : 404 pixels
Display aspect ratio : 16:9
Frame rate mode : Constant
Frame rate : 25.000 FPS
Color space : YUV
Chroma subsampling : 4:2:0
Bit depth : 8 bits
Scan type : Progressive
Bits/(Pixel*Frame) : 0.142
Stream size : 299 MiB (84%)
Writing library : x264 core 157 r2969 d4099dd
Encoding settings : cabac=1 / ref=5 / deblock=1:-2:-2 / analyse=0x3:0x113 / me=umh / subme=8 / psy=1 / psy_rd=1.00:0.00 / mixed_ref=1 / me_range=16 / chroma_me=1 / trellis=2 / 8x8dct=1 / cqm=0 / deadzone=21,11 / fast_pskip=0 / chroma_qp_offset=-2 / threads=12 / lookahead_threads=2 / sliced_threads=0 / nr=0 / decimate=1 / interlaced=0 / bluray_compat=0 / constrained_intra=0 / bframes=3 / b_pyramid=2 / b_adapt=2 / b_bias=0 / direct=3 / weightb=1 / open_gop=0 / weightp=2 / keyint=250 / keyint_min=25 / scenecut=40 / intra_refresh=0 / rc_lookahead=50 / rc=crf / mbtree=1 / crf=19.0 / qcomp=0.60 / qpmin=0 / qpmax=69 / qpstep=4 / ip_ratio=1.40 / aq=1:0.80
Default : Yes
Forced : No

Audio
ID : 2
Format : AC-3
Format/Info : Audio Coding 3
Format settings, Endianness : Big
Codec ID : A_AC3
Duration : 40 min 22 s
Bit rate mode : Constant
Bit rate : 192 kb/s
Channel(s) : 2 channels
Channel positions : Front: L R
Sampling rate : 48.0 kHz
Frame rate : 31.250 FPS (1536 SPF)
Bit depth : 16 bits
Compression mode : Lossy
Stream size : 55.4 MiB (16%)
Language : German
Service kind : Complete Main
Default : Yes
Forced : No





S.W.A.T. S02E14


S.W.A.T. S02E14


S.W.A.T. S02E14


S.W.A.T. S02E14


S.W.A.T. S02E14

All episodes