Featured TV Shows


S.W.A.T. S03E05

Posted By: Tavaz
1080p (FullHD) / HDTV IMDb
S.W.A.T. S03E05

S.W.A.T. S03E05
HDTV | MKV | 1920x1080 | French / English | H264 @ 8998 kbps | AAC @ 61 kbps | 40 min 16 s | 2.57 GiB
Subtitles: French
Genre: Crime, Drama


Follows a locally born and bred S.W.A.T. lieutenant who is torn between loyalty to the streets and duty to his fellow officers when he's tasked to run a highly-trained unit that's the last stop for solving crimes in Los Angeles.

88a4433f955f4748b801dc31044c36b9.mkv (2.6 GB)



General
Unique ID : 29724519714198231963729354253542666632 (0x165CBBF876CB0A66AE573FD83360B188)
Complete name : ./88a4433f955f4748b801dc31044c36b9.mkv
Format : Matroska
Format version : Version 4 / Version 2
File size : 2.57 GiB
Duration : 40 min 16 s
Overall bit rate : 9 125 kb/s
Encoded date : UTC 2019-11-26 21:07:23
Writing application : mkvmerge v40.0.0 ('Old Town Road + Pony') 64-bit
Writing library : libebml v1.3.9 + libmatroska v1.5.2

Video
ID : 1
Format : AVC
Format/Info : Advanced Video Codec
Format profile : High@L4
Format settings : CABAC / 4 Ref Frames
Format settings, CABAC : Yes
Format settings, RefFrames : 4 frames
Codec ID : V_MPEG4/ISO/AVC
Duration : 40 min 16 s
Bit rate : 8 998 kb/s
Width : 1 920 pixels
Height : 1 080 pixels
Display aspect ratio : 16:9
Frame rate mode : Constant
Frame rate : 25.000 FPS
Standard : Component
Color space : YUV
Chroma subsampling : 4:2:0
Bit depth : 8 bits
Scan type : MBAFF
Scan type, store method : Interleaved fields
Scan order : Top Field First
Bits/(Pixel*Frame) : 0.174
Stream size : 2.53 GiB (99%)
Default : No
Forced : No
Color range : Limited
Color primaries : BT.709
Transfer characteristics : BT.709
Matrix coefficients : BT.709

Audio #1
ID : 2
Format : AAC
Format/Info : Advanced Audio Codec
Format profile : HE-AAC / LC
Format settings : Explicit
Codec ID : A_AAC-2
Duration : 40 min 16 s
Bit rate : 61.9 kb/s
Channel(s) : 2 channels
Channel positions : Front: L R
Sampling rate : 48.0 kHz / 24.0 kHz
Frame rate : 23.438 FPS (1024 SPF)
Compression mode : Lossy
Stream size : 17.8 MiB (1%)
Title : French
Language : French
Default : Yes
Forced : No

Audio #2
ID : 3
Format : AAC
Format/Info : Advanced Audio Codec
Format profile : HE-AAC / LC
Format settings : Explicit
Codec ID : A_AAC-2
Duration : 40 min 16 s
Bit rate : 61.9 kb/s
Channel(s) : 2 channels
Channel positions : Front: L R
Sampling rate : 48.0 kHz / 24.0 kHz
Frame rate : 23.438 FPS (1024 SPF)
Compression mode : Lossy
Stream size : 17.8 MiB (1%)
Title : English
Language : English
Default : No
Forced : No

Text #1
ID : 4
Format : UTF-8
Codec ID : S_TEXT/UTF8
Codec ID/Info : UTF-8 Plain Text
Duration : 40 min 10 s
Bit rate : 77 b/s
Count of elements : 735
Stream size : 22.7 KiB (0%)
Title : French
Language : French
Default : No
Forced : No

Text #2
ID : 5
Format : UTF-8
Codec ID : S_TEXT/UTF8
Codec ID/Info : UTF-8 Plain Text
Duration : 40 min 9 s
Bit rate : 87 b/s
Count of elements : 853
Stream size : 25.8 KiB (0%)
Title : French (SDH)
Language : French
Default : No
Forced : No





S.W.A.T. S03E05


S.W.A.T. S03E05


S.W.A.T. S03E05


S.W.A.T. S03E05


S.W.A.T. S03E05

All episodes