Featured TV Shows


S.W.A.T. S03E06

Posted By: Tavaz
1080p (FullHD) / HDTV IMDb
S.W.A.T. S03E06

S.W.A.T. S03E06
HDTV | MKV | 1920x1080 | French / English | H264 @ 8989 kbps | AAC @ 61 kbps | 39 min 34 s | 2.52 GiB
Subtitles: French
Genre: Crime, Drama


Follows a locally born and bred S.W.A.T. lieutenant who is torn between loyalty to the streets and duty to his fellow officers when he's tasked to run a highly-trained unit that's the last stop for solving crimes in Los Angeles.

5575323b56664cdb8d5363e456af033e.mkv (2.5 GB)



General
Unique ID : 302525541788713027117274143973239466361 (0xE3984CCBF77C36A33562663282D4A979)
Complete name : ./5575323b56664cdb8d5363e456af033e.mkv
Format : Matroska
Format version : Version 4 / Version 2
File size : 2.52 GiB
Duration : 39 min 34 s
Overall bit rate : 9 116 kb/s
Encoded date : UTC 2019-11-26 21:57:35
Writing application : mkvmerge v40.0.0 ('Old Town Road + Pony') 64-bit
Writing library : libebml v1.3.9 + libmatroska v1.5.2

Video
ID : 1
Format : AVC
Format/Info : Advanced Video Codec
Format profile : High@L4
Format settings : CABAC / 4 Ref Frames
Format settings, CABAC : Yes
Format settings, RefFrames : 4 frames
Codec ID : V_MPEG4/ISO/AVC
Duration : 39 min 34 s
Bit rate : 8 989 kb/s
Width : 1 920 pixels
Height : 1 080 pixels
Display aspect ratio : 16:9
Frame rate mode : Constant
Frame rate : 25.000 FPS
Standard : Component
Color space : YUV
Chroma subsampling : 4:2:0
Bit depth : 8 bits
Scan type : MBAFF
Scan type, store method : Interleaved fields
Scan order : Top Field First
Bits/(Pixel*Frame) : 0.173
Stream size : 2.48 GiB (99%)
Default : No
Forced : No
Color range : Limited
Color primaries : BT.709
Transfer characteristics : BT.709
Matrix coefficients : BT.709

Audio #1
ID : 2
Format : AAC
Format/Info : Advanced Audio Codec
Format profile : HE-AAC / LC
Format settings : Explicit
Codec ID : A_AAC-2
Duration : 39 min 34 s
Bit rate : 61.9 kb/s
Channel(s) : 2 channels
Channel positions : Front: L R
Sampling rate : 48.0 kHz / 24.0 kHz
Frame rate : 23.438 FPS (1024 SPF)
Compression mode : Lossy
Stream size : 17.5 MiB (1%)
Title : French
Language : French
Default : Yes
Forced : No

Audio #2
ID : 3
Format : AAC
Format/Info : Advanced Audio Codec
Format profile : HE-AAC / LC
Format settings : Explicit
Codec ID : A_AAC-2
Duration : 39 min 34 s
Bit rate : 61.9 kb/s
Channel(s) : 2 channels
Channel positions : Front: L R
Sampling rate : 48.0 kHz / 24.0 kHz
Frame rate : 23.438 FPS (1024 SPF)
Compression mode : Lossy
Stream size : 17.5 MiB (1%)
Title : English
Language : English
Default : No
Forced : No

Text #1
ID : 4
Format : UTF-8
Codec ID : S_TEXT/UTF8
Codec ID/Info : UTF-8 Plain Text
Duration : 39 min 9 s
Bit rate : 78 b/s
Count of elements : 783
Stream size : 22.6 KiB (0%)
Title : French
Language : French
Default : No
Forced : No

Text #2
ID : 5
Format : UTF-8
Codec ID : S_TEXT/UTF8
Codec ID/Info : UTF-8 Plain Text
Duration : 39 min 17 s
Bit rate : 92 b/s
Count of elements : 886
Stream size : 26.7 KiB (0%)
Title : French (SDH)
Language : French
Default : No
Forced : No





S.W.A.T. S03E06


S.W.A.T. S03E06


S.W.A.T. S03E06


S.W.A.T. S03E06


S.W.A.T. S03E06

All episodes