Featured TV Shows


SEAL Team S01E12

Posted By: Tavaz
SEAL Team S01E12

SEAL Team S01E12
MKV | 1920x1080 | English | H264 @ 10493 kbps | E-AC-3 @ 640 kbps | 43 min 38 s | 3.46 GiB
Subtitles: English, Dutch
Genre: Drama

The lives of the elite Navy Seals as they train, plan and execute the most dangerous, high-stakes missions our country can ask.

SEAL.Team.S01E12.mkv (3.5 GB)
Wat biedt Hitnews.docx (26.3 KB)



General
Unique ID : 184798568880280935117583439138974074990 (0x8B06E8E54981A958B6D2EA4975B0086E)
Complete name : ./SEAL.Team.S01E12.mkv
Format : Matroska
Format version : Version 4 / Version 2
File size : 3.46 GiB
Duration : 43 min 38 s
Overall bit rate mode : Variable
Overall bit rate : 11.4 Mb/s
Encoded date : UTC 2018-01-21 13:25:41
Writing application : mkvmerge v6.3.0 ('You can't stop me!') built on Jun 27 2013 22:06:07
Writing library : libebml v1.3.0 + libmatroska v1.4.0

Video
ID : 1
Format : AVC
Format/Info : Advanced Video Codec
Format profile : High@L4
Format settings : CABAC / 4 Ref Frames
Format settings, CABAC : Yes
Format settings, RefFrames : 4 frames
Codec ID : V_MPEG4/ISO/AVC
Duration : 43 min 38 s
Bit rate mode : Variable
Bit rate : 10.5 Mb/s
Maximum bit rate : 15.0 Mb/s
Width : 1 920 pixels
Height : 1 080 pixels
Display aspect ratio : 16:9
Frame rate mode : Constant
Frame rate : 23.976 (24000/1001) FPS
Color space : YUV
Chroma subsampling : 4:2:0
Bit depth : 8 bits
Scan type : Progressive
Bits/(Pixel*Frame) : 0.211
Stream size : 3.20 GiB (92%)
Default : Yes
Forced : No
Color range : Limited
Color primaries : BT.709
Transfer characteristics : BT.709
Matrix coefficients : BT.709
Statistics Tags Issue : mkvmerge v13.0.0 ('The Juggler') 64bit 2018-01-18 08:24:33 / mkvmerge v6.3.0 ('You can't stop me!') built on Jun 27 2013 22:06:07 2018-01-21 13:25:41
FromStats_BitRate : 10717114
FromStats_Duration : 00:43:38.867000000
FromStats_FrameCount : 62790
FromStats_StreamSize : 3508337243

Audio
ID : 2
Format : E-AC-3
Format/Info : Enhanced Audio Coding 3
Format settings, Endianness : Big
Codec ID : A_EAC3
Duration : 43 min 38 s
Bit rate mode : Constant
Bit rate : 640 kb/s
Channel(s) : 6 channels
Channel positions : Front: L C R, Side: L R, LFE
Sampling rate : 48.0 kHz
Frame rate : 187.500 FPS (256 SPF)
Compression mode : Lossy
Stream size : 200 MiB (6%)
Language : English
Service kind : Complete Main
Default : Yes
Forced : No
Statistics Tags Issue : mkvmerge v13.0.0 ('The Juggler') 64bit 2018-01-18 08:24:33 / mkvmerge v6.3.0 ('You can't stop me!') built on Jun 27 2013 22:06:07 2018-01-21 13:25:41
FromStats_BitRate : 640000
FromStats_Duration : 00:43:38.816000000
FromStats_FrameCount : 81838
FromStats_StreamSize : 209505280

Text #1
ID : 3
Format : UTF-8
Codec ID : S_TEXT/UTF8
Codec ID/Info : UTF-8 Plain Text
Language : Dutch
Default : Yes
Forced : No

Text #2
ID : 4
Format : UTF-8
Codec ID : S_TEXT/UTF8
Codec ID/Info : UTF-8 Plain Text
Language : English
Default : No
Forced : No
Statistics Tags Issue : mkvmerge v13.0.0 ('The Juggler') 64bit 2018-01-18 08:24:33 / mkvmerge v6.3.0 ('You can't stop me!') built on Jun 27 2013 22:06:07 2018-01-21 13:25:41
FromStats_BitRate : 85
FromStats_Duration : 00:43:02.613000000
FromStats_FrameCount : 857
FromStats_StreamSize : 27700





SEAL Team S01E12


SEAL Team S01E12


SEAL Team S01E12


SEAL Team S01E12


SEAL Team S01E12

All episodes