Featured TV Shows


Safe S01E08

Posted By: Tavaz
SD / BDRip IMDb
Safe S01E08

Safe S01E08
BDRip | MKV | 720x302 | French | H264 @ 477 kbps | AAC @ 132 kbps | 48 min 21 s | 212 MiB
Subtitles: French
Genre: Crime, Drame

Récemment veuf, Tom est à l’aube d’une nouvelle vie avec ses deux filles, au sein d’une communauté privilégiée et protégée. Mais des secrets profondément enfouis vont venir bouleverser tout ce bel équilibre. Disparition mystérieuse, adultères, assassinat … Tom réalise qu’il ne connait pas réellement ceux qui l’entourent. Parviendra-t-il à protéger ses proches contre les dangers qui les guettent ?

safe.s01e08.final.french.bdrip.x264-sh0w.mkv (212.2 MB)
safe.s01e08.final.french.bdrip.x264-sh0w.sample.mkv (2.9 MB)



General
Unique ID : 98960358647946619723707367887269738845 (0x4A731261AA0BCB63F3CE9D6C5487395D)
Complete name : ./safe.s01e08.final.french.bdrip.x264-sh0w.mkv
Format : Matroska
Format version : Version 4 / Version 2
File size : 212 MiB
Duration : 48 min 21 s
Overall bit rate : 614 kb/s
Encoded date : UTC 2018-06-07 02:42:09
Writing application : mkvmerge v23.0.0 ('The Bride Said No') 64-bit
Writing library : libebml v1.3.6 + libmatroska v1.4.9

Video
ID : 1
Format : AVC
Format/Info : Advanced Video Codec
Format profile : High@L3.1
Format settings : CABAC / 5 Ref Frames
Format settings, CABAC : Yes
Format settings, RefFrames : 5 frames
Codec ID : V_MPEG4/ISO/AVC
Duration : 48 min 21 s
Bit rate : 478 kb/s
Width : 720 pixels
Height : 302 pixels
Display aspect ratio : 2.40:1
Frame rate mode : Constant
Frame rate : 25.000 FPS
Color space : YUV
Chroma subsampling : 4:2:0
Bit depth : 8 bits
Scan type : Progressive
Bits/(Pixel*Frame) : 0.088
Stream size : 165 MiB (78%)
Writing library : x264 core 155 r2901 7d0ff22
Encoding settings : cabac=1 / ref=5 / deblock=1:-2:-2 / analyse=0x3:0x133 / me=umh / subme=9 / psy=1 / psy_rd=0.80:0.00 / mixed_ref=1 / me_range=16 / chroma_me=1 / trellis=2 / 8x8dct=1 / cqm=0 / deadzone=21,11 / fast_pskip=0 / chroma_qp_offset=-2 / threads=9 / lookahead_threads=1 / sliced_threads=0 / nr=0 / decimate=1 / interlaced=0 / bluray_compat=0 / constrained_intra=0 / bframes=3 / b_pyramid=2 / b_adapt=1 / b_bias=0 / direct=3 / weightb=1 / open_gop=0 / weightp=2 / keyint=250 / keyint_min=25 / scenecut=40 / intra_refresh=0 / rc_lookahead=50 / rc=crf / mbtree=1 / crf=19.0 / qcomp=0.60 / qpmin=10 / qpmax=69 / qpstep=4 / ip_ratio=1.40 / aq=1:0.70
Default : Yes
Forced : No
Color range : Limited
Matrix coefficients : BT.709

Audio
ID : 2
Format : AAC
Format/Info : Advanced Audio Codec
Format profile : LC
Codec ID : A_AAC-2
Duration : 48 min 14 s
Bit rate : 132 kb/s
Channel(s) : 2 channels
Channel positions : Front: L R
Sampling rate : 48.0 kHz
Frame rate : 46.875 FPS (1024 SPF)
Compression mode : Lossy
Delay relative to video : 20 ms
Stream size : 46.2 MiB (22%)
Title : French
Language : French
Default : Yes
Forced : No

Text #1
ID : 3
Format : UTF-8
Codec ID : S_TEXT/UTF8
Codec ID/Info : UTF-8 Plain Text
Duration : 28 min 53 s
Bit rate : 1 b/s
Count of elements : 7
Stream size : 230 Bytes (0%)
Title : French (Forced)
Language : French
Default : Yes
Forced : Yes

Text #2
ID : 4
Format : UTF-8
Codec ID : S_TEXT/UTF8
Codec ID/Info : UTF-8 Plain Text
Duration : 48 min 1 s
Bit rate : 43 b/s
Count of elements : 560
Stream size : 15.5 KiB (0%)
Title : French
Language : French
Default : No
Forced : No

Menu
00:00:00.000 : fr:Chapter 1
00:01:34.120 : fr:Chapter 2
00:22:23.600 : fr:Chapter 3
00:47:40.600 : fr:Chapter 4





Safe S01E08


Safe S01E08


Safe S01E08


Safe S01E08


Safe S01E08

All episodes