Featured TV Shows


Schooled S02E16

Posted By: Tavaz
1080p (FullHD) / WEBRip IMDb
Schooled S02E16

Schooled S02E16
WEBRip | MKV | 1920x1080 | English | H264 @ 10000 kbps | E-AC-3 @ 640 kbps | 21 min 36 s | 1.56 GiB
Subtitles: English
Genre: Comedy


It’s 1990-something, and since Lainey still hasn’t achieved rock ‘n’ roll greatness, she returns to William Penn Academy as the new music teacher.

42bcdad195d44ef5a3f5ec01d9bf1aab.mkv (1.6 GB)



General
Unique ID : 94320443953270468964153208653921221903 (0x46F574ECC3E3C81F901966CB088D7D0F)
Complete name : ./42bcdad195d44ef5a3f5ec01d9bf1aab.mkv
Format : Matroska
Format version : Version 4 / Version 2
File size : 1.56 GiB
Duration : 21 min 36 s
Overall bit rate : 10.3 Mb/s
Encoded date : UTC 2020-03-19 07:03:22
Writing application : mkvmerge v38.0.0 ('The Silent Type') 64-bit
Writing library : libebml v1.3.9 + libmatroska v1.5.2

Video
ID : 1
Format : AVC
Format/Info : Advanced Video Codec
Format profile : High@L4
Format settings : CABAC / 4 Ref Frames
Format settings, CABAC : Yes
Format settings, RefFrames : 4 frames
Codec ID : V_MPEG4/ISO/AVC
Duration : 21 min 36 s
Bit rate mode : Constant
Bit rate : 10 000 kb/s
Width : 1 920 pixels
Height : 1 080 pixels
Display aspect ratio : 16:9
Frame rate mode : Constant
Frame rate : 23.976 (24000/1001) FPS
Color space : YUV
Chroma subsampling : 4:2:0
Bit depth : 8 bits
Scan type : Progressive
Bits/(Pixel*Frame) : 0.201
Stream size : 1.46 GiB (94%)
Language : English
Default : Yes
Forced : No
Color range : Limited
Color primaries : BT.709
Transfer characteristics : BT.709
Matrix coefficients : BT.709

Audio
ID : 2
Format : E-AC-3
Format/Info : Enhanced Audio Coding 3
Format settings, Endianness : Big
Codec ID : A_EAC3
Duration : 21 min 36 s
Bit rate mode : Constant
Bit rate : 640 kb/s
Channel(s) : 6 channels
Channel positions : Front: L C R, Side: L R, LFE
Sampling rate : 48.0 kHz
Frame rate : 187.500 FPS (256 SPF)
Compression mode : Lossy
Stream size : 98.9 MiB (6%)
Language : English
Service kind : Complete Main
Default : Yes
Forced : No

Text
ID : 3
Format : UTF-8
Codec ID : S_TEXT/UTF8
Codec ID/Info : UTF-8 Plain Text
Duration : 21 min 28 s
Bit rate : 142 b/s
Count of elements : 648
Stream size : 22.4 KiB (0%)
Title : English
Language : English
Default : No
Forced : No





Schooled S02E16


Schooled S02E16


Schooled S02E16


Schooled S02E16


Schooled S02E16

All episodes