Featured TV Shows


Schooled S02E17

Posted By: Tavaz
1080p (FullHD) / WEBRip IMDb
Schooled S02E17

Schooled S02E17
WEBRip | MKV | 1920x1080 | H264 @ 5670 kbps | E-AC-3 @ 256 kbps | 21 min 25 s | 909 MiB
Subtitles: English
Genre: Comedy


It’s 1990-something, and since Lainey still hasn’t achieved rock ‘n’ roll greatness, she returns to William Penn Academy as the new music teacher.

9f3d4996b8714e60adbc000a2f21dae8.mkv (908.5 MB)



General
Unique ID : 228555937565472141988108550228113786606 (0xABF245BCD316CB92C9D12D103F1286EE)
Complete name : ./9f3d4996b8714e60adbc000a2f21dae8.mkv
Format : Matroska
Format version : Version 4 / Version 2
File size : 909 MiB
Duration : 21 min 25 s
Overall bit rate : 5 928 kb/s
Encoded date : UTC 2020-03-26 09:00:20
Writing application : mkvmerge v38.0.0 ('The Silent Type') 64-bit
Writing library : libebml v1.3.9 + libmatroska v1.5.2

Video
ID : 1
Format : AVC
Format/Info : Advanced Video Codec
Format profile : High@L4
Format settings : CABAC / 4 Ref Frames
Format settings, CABAC : Yes
Format settings, RefFrames : 4 frames
Codec ID : V_MPEG4/ISO/AVC
Duration : 21 min 25 s
Bit rate : 5 670 kb/s
Width : 1 920 pixels
Height : 1 080 pixels
Display aspect ratio : 16:9
Frame rate mode : Constant
Frame rate : 23.976 (24000/1001) FPS
Color space : YUV
Chroma subsampling : 4:2:0
Bit depth : 8 bits
Scan type : Progressive
Bits/(Pixel*Frame) : 0.114
Stream size : 869 MiB (96%)
Default : Yes
Forced : No

Audio
ID : 2
Format : E-AC-3
Format/Info : Enhanced Audio Coding 3
Format settings, Endianness : Big
Codec ID : A_EAC3
Duration : 21 min 25 s
Bit rate mode : Constant
Bit rate : 256 kb/s
Channel(s) : 6 channels
Channel positions : Front: L C R, Side: L R, LFE
Sampling rate : 48.0 kHz
Frame rate : 187.500 FPS (256 SPF)
Compression mode : Lossy
Stream size : 39.2 MiB (4%)
Service kind : Complete Main
Default : Yes
Forced : No

Text
ID : 3
Format : UTF-8
Codec ID : S_TEXT/UTF8
Codec ID/Info : UTF-8 Plain Text
Duration : 21 min 17 s
Bit rate : 144 b/s
Count of elements : 644
Stream size : 22.5 KiB (0%)
Language : English
Default : No
Forced : No





Schooled S02E17


Schooled S02E17


Schooled S02E17


Schooled S02E17


Schooled S02E17

All episodes