Featured TV Shows


See S01E04

Posted By: Tavaz
720p (HD) / WEB-DL IMDb
See S01E04

See S01E04
WEB-DL | MKV | 1392x660 | English | H264 @ 2824 kbps | AC-3 @ 384 kbps | 53 min 36 s | 1.20 GiB
Subtitles: Swedish, Estonian, Telugu, Vietnamese, Slovenian, Hindi, Dutch, Danish, Bulgarian, Hungarian, Ukrainian, Lithuanian, Malay, French, Norwegian, Russian, Thai, Tamil, Finnish, Spanish, Indonesian, Greek, Latvian, English, Italian, Portuguese, Chinese, Czech, Japanese, German, Slovak, Hebrew, Polish, Arabic
Genre: Drama


A virus has decimated humankind. Those who survived emerged blind. Centuries later when twins are born with the mythic ability to see, their father must protect his tribe against a threatened queen.

e084ec38b0e54758b50abf3527c424e8.mkv (1.2 GB)



General
Unique ID : 20241886879491765003823300162370049889 (0xF3A7213506F17914BE546CFD6E29761)
Complete name : ./e084ec38b0e54758b50abf3527c424e8.mkv
Format : Matroska
Format version : Version 4 / Version 2
File size : 1.20 GiB
Duration : 53 min 36 s
Overall bit rate : 3 214 kb/s
Encoded date : UTC 2019-11-08 06:15:17
Writing application : mkvmerge v39.0.0 ('In The Waiting Line') 64-bit
Writing library : libebml v1.3.9 + libmatroska v1.5.2

Video
ID : 1
Format : AVC
Format/Info : Advanced Video Codec
Format profile : High@L3.2
Format settings : CABAC / 5 Ref Frames
Format settings, CABAC : Yes
Format settings, RefFrames : 5 frames
Codec ID : V_MPEG4/ISO/AVC
Duration : 53 min 36 s
Bit rate : 2 825 kb/s
Width : 1 392 pixels
Height : 660 pixels
Display aspect ratio : 2.109
Frame rate mode : Constant
Frame rate : 23.976 FPS
Color space : YUV
Chroma subsampling : 4:2:0
Bit depth : 8 bits
Scan type : Progressive
Bits/(Pixel*Frame) : 0.128
Stream size : 1.06 GiB (88%)
Language : English
Default : Yes
Forced : No
Color range : Limited
Color primaries : BT.709
Transfer characteristics : BT.709
Matrix coefficients : BT.709

Audio
ID : 2
Format : AC-3
Format/Info : Audio Coding 3
Format settings, Endianness : Big
Codec ID : A_AC3
Duration : 53 min 36 s
Bit rate mode : Constant
Bit rate : 384 kb/s
Channel(s) : 6 channels
Channel positions : Front: L C R, Side: L R, LFE
Sampling rate : 48.0 kHz
Frame rate : 31.250 FPS (1536 SPF)
Bit depth : 16 bits
Compression mode : Lossy
Stream size : 147 MiB (12%)
Language : English
Service kind : Complete Main
Default : Yes
Forced : No

Text #1
ID : 3
Format : UTF-8
Codec ID : S_TEXT/UTF8
Codec ID/Info : UTF-8 Plain Text
Duration : 7 min 36 s
Bit rate : 1 b/s
Count of elements : 3
Stream size : 61.0 Bytes (0%)
Title : English (Forced)
Language : English
Default : Yes
Forced : Yes

Text #2
ID : 4
Format : UTF-8
Codec ID : S_TEXT/UTF8
Codec ID/Info : UTF-8 Plain Text
Duration : 51 min 56 s
Bit rate : 40 b/s
Count of elements : 489
Stream size : 15.4 KiB (0%)
Language : English
Default : No
Forced : No

Text #3
ID : 5
Format : UTF-8
Codec ID : S_TEXT/UTF8
Codec ID/Info : UTF-8 Plain Text
Duration : 51 min 56 s
Bit rate : 46 b/s
Count of elements : 587
Stream size : 17.7 KiB (0%)
Title : English (SDH)
Language : English
Default : No
Forced : No

Text #4
ID : 6
Format : UTF-8
Codec ID : S_TEXT/UTF8
Codec ID/Info : UTF-8 Plain Text
Duration : 53 min 26 s
Bit rate : 52 b/s
Count of elements : 493
Stream size : 20.5 KiB (0%)
Language : Arabic
Default : No
Forced : No

Text #5
ID : 7
Format : UTF-8
Codec ID : S_TEXT/UTF8
Codec ID/Info : UTF-8 Plain Text
Duration : 53 min 26 s
Bit rate : 57 b/s
Count of elements : 475
Stream size : 22.7 KiB (0%)
Language : Bulgarian
Default : No
Forced : No

Text #6
ID : 8
Format : UTF-8
Codec ID : S_TEXT/UTF8
Codec ID/Info : UTF-8 Plain Text
Duration : 53 min 26 s
Bit rate : 40 b/s
Count of elements : 494
Stream size : 15.7 KiB (0%)
Title : Cantonese (Traditional)
Language : Chinese
Default : No
Forced : No

Text #7
ID : 9
Format : UTF-8
Codec ID : S_TEXT/UTF8
Codec ID/Info : UTF-8 Plain Text
Duration : 53 min 26 s
Bit rate : 37 b/s
Count of elements : 493
Stream size : 14.5 KiB (0%)
Title : Chinese (Simplified)
Language : Chinese
Default : No
Forced : No

Text #8
ID : 10
Format : UTF-8
Codec ID : S_TEXT/UTF8
Codec ID/Info : UTF-8 Plain Text
Duration : 53 min 26 s
Bit rate : 35 b/s
Count of elements : 494
Stream size : 14.0 KiB (0%)
Title : Chinese (Traditional)
Language : Chinese
Default : No
Forced : No

Text #9
ID : 11
Format : UTF-8
Codec ID : S_TEXT/UTF8
Codec ID/Info : UTF-8 Plain Text
Duration : 53 min 26 s
Bit rate : 37 b/s
Count of elements : 492
Stream size : 14.8 KiB (0%)
Language : Czech
Default : No
Forced : No

Text #10
ID : 12
Format : UTF-8
Codec ID : S_TEXT/UTF8
Codec ID/Info : UTF-8 Plain Text
Duration : 53 min 26 s
Bit rate : 40 b/s
Count of elements : 493
Stream size : 15.9 KiB (0%)
Language : Danish
Default : No
Forced : No

Text #11
ID : 13
Format : UTF-8
Codec ID : S_TEXT/UTF8
Codec ID/Info : UTF-8 Plain Text
Duration : 53 min 26 s
Bit rate : 39 b/s
Count of elements : 487
Stream size : 15.6 KiB (0%)
Language : Dutch
Default : No
Forced : No

Text #12
ID : 14
Format : UTF-8
Codec ID : S_TEXT/UTF8
Codec ID/Info : UTF-8 Plain Text
Duration : 53 min 26 s
Bit rate : 36 b/s
Count of elements : 493
Stream size : 14.4 KiB (0%)
Language : Estonian
Default : No
Forced : No

Text #13
ID : 15
Format : UTF-8
Codec ID : S_TEXT/UTF8
Codec ID/Info : UTF-8 Plain Text
Duration : 53 min 26 s
Bit rate : 34 b/s
Count of elements : 491
Stream size : 13.6 KiB (0%)
Language : Finnish
Default : No
Forced : No

Text #14
ID : 16
Format : UTF-8
Codec ID : S_TEXT/UTF8
Codec ID/Info : UTF-8 Plain Text
Duration : 52 min 34 s
Bit rate : 40 b/s
Count of elements : 515
Stream size : 15.6 KiB (0%)
Title : French (Canada)
Language : French
Default : No
Forced : No

Text #15
ID : 17
Format : UTF-8
Codec ID : S_TEXT/UTF8
Codec ID/Info : UTF-8 Plain Text
Duration : 52 min 34 s
Bit rate : 40 b/s
Count of elements : 514
Stream size : 15.6 KiB (0%)
Title : French (France)
Language : French
Default : No
Forced : No

Text #16
ID : 18
Format : UTF-8
Codec ID : S_TEXT/UTF8
Codec ID/Info : UTF-8 Plain Text
Duration : 53 min 28 s
Bit rate : 43 b/s
Count of elements : 490
Stream size : 16.9 KiB (0%)
Language : German
Default : No
Forced : No

Text #17
ID : 19
Format : UTF-8
Codec ID : S_TEXT/UTF8
Codec ID/Info : UTF-8 Plain Text
Duration : 53 min 26 s
Bit rate : 71 b/s
Count of elements : 490
Stream size : 28.2 KiB (0%)
Language : Greek
Default : No
Forced : No

Text #18
ID : 20
Format : UTF-8
Codec ID : S_TEXT/UTF8
Codec ID/Info : UTF-8 Plain Text
Duration : 53 min 26 s
Bit rate : 54 b/s
Count of elements : 493
Stream size : 21.2 KiB (0%)
Language : Hebrew
Default : No
Forced : No

Text #19
ID : 21
Format : UTF-8
Codec ID : S_TEXT/UTF8
Codec ID/Info : UTF-8 Plain Text
Duration : 53 min 26 s
Bit rate : 104 b/s
Count of elements : 494
Stream size : 40.8 KiB (0%)
Language : Hindi
Default : No
Forced : No

Text #20
ID : 22
Format : UTF-8
Codec ID : S_TEXT/UTF8
Codec ID/Info : UTF-8 Plain Text
Duration : 53 min 26 s
Bit rate : 39 b/s
Count of elements : 491
Stream size : 15.4 KiB (0%)
Language : Hungarian
Default : No
Forced : No

Text #21
ID : 23
Format : UTF-8
Codec ID : S_TEXT/UTF8
Codec ID/Info : UTF-8 Plain Text
Duration : 53 min 26 s
Bit rate : 40 b/s
Count of elements : 493
Stream size : 15.7 KiB (0%)
Language : Indonesian
Default : No
Forced : No

Text #22
ID : 24
Format : UTF-8
Codec ID : S_TEXT/UTF8
Codec ID/Info : UTF-8 Plain Text
Duration : 53 min 28 s
Bit rate : 41 b/s
Count of elements : 497
Stream size : 16.2 KiB (0%)
Language : Italian
Default : No
Forced : No

Text #23
ID : 25
Format : UTF-8
Codec ID : S_TEXT/UTF8
Codec ID/Info : UTF-8 Plain Text
Duration : 53 min 33 s
Bit rate : 34 b/s
Count of elements : 497
Stream size : 13.6 KiB (0%)
Language : Japanese
Default : No
Forced : No

Text #24
ID : 26
Format : UTF-8
Codec ID : S_TEXT/UTF8
Codec ID/Info : UTF-8 Plain Text
Duration : 53 min 26 s
Bit rate : 40 b/s
Count of elements : 493
Stream size : 15.7 KiB (0%)
Language : Latvian
Default : No
Forced : No

Text #25
ID : 27
Format : UTF-8
Codec ID : S_TEXT/UTF8
Codec ID/Info : UTF-8 Plain Text
Duration : 53 min 26 s
Bit rate : 37 b/s
Count of elements : 493
Stream size : 14.7 KiB (0%)
Language : Lithuanian
Default : No
Forced : No

Text #26
ID : 28
Format : UTF-8
Codec ID : S_TEXT/UTF8
Codec ID/Info : UTF-8 Plain Text
Duration : 53 min 26 s
Bit rate : 42 b/s
Count of elements : 491
Stream size : 16.8 KiB (0%)
Language : Malay
Default : No
Forced : No

Text #27
ID : 29
Format : UTF-8
Codec ID : S_TEXT/UTF8
Codec ID/Info : UTF-8 Plain Text
Duration : 53 min 26 s
Bit rate : 39 b/s
Count of elements : 493
Stream size : 15.6 KiB (0%)
Language : Norwegian
Default : No
Forced : No

Text #28
ID : 30
Format : UTF-8
Codec ID : S_TEXT/UTF8
Codec ID/Info : UTF-8 Plain Text
Duration : 53 min 26 s
Bit rate : 36 b/s
Count of elements : 493
Stream size : 14.4 KiB (0%)
Language : Polish
Default : No
Forced : No

Text #29
ID : 31
Format : UTF-8
Codec ID : S_TEXT/UTF8
Codec ID/Info : UTF-8 Plain Text
Duration : 53 min 26 s
Bit rate : 41 b/s
Count of elements : 493
Stream size : 16.3 KiB (0%)
Language : Portuguese
Default : No
Forced : No

Text #30
ID : 32
Format : UTF-8
Codec ID : S_TEXT/UTF8
Codec ID/Info : UTF-8 Plain Text
Duration : 53 min 26 s
Bit rate : 37 b/s
Count of elements : 493
Stream size : 14.6 KiB (0%)
Title : Portuguese (Brazil)
Language : Portuguese
Default : No
Forced : No

Text #31
ID : 33
Format : UTF-8
Codec ID : S_TEXT/UTF8
Codec ID/Info : UTF-8 Plain Text
Duration : 53 min 26 s
Bit rate : 64 b/s
Count of elements : 494
Stream size : 25.1 KiB (0%)
Language : Russian
Default : No
Forced : No

Text #32
ID : 34
Format : UTF-8
Codec ID : S_TEXT/UTF8
Codec ID/Info : UTF-8 Plain Text
Duration : 53 min 26 s
Bit rate : 35 b/s
Count of elements : 493
Stream size : 13.7 KiB (0%)
Language : Slovak
Default : No
Forced : No

Text #33
ID : 35
Format : UTF-8
Codec ID : S_TEXT/UTF8
Codec ID/Info : UTF-8 Plain Text
Duration : 53 min 26 s
Bit rate : 34 b/s
Count of elements : 493
Stream size : 13.4 KiB (0%)
Language : Slovenian
Default : No
Forced : No

Text #34
ID : 36
Format : UTF-8
Codec ID : S_TEXT/UTF8
Codec ID/Info : UTF-8 Plain Text
Duration : 53 min 28 s
Bit rate : 37 b/s
Count of elements : 485
Stream size : 14.8 KiB (0%)
Language : Spanish
Default : No
Forced : No

Text #35
ID : 37
Format : UTF-8
Codec ID : S_TEXT/UTF8
Codec ID/Info : UTF-8 Plain Text
Duration : 53 min 28 s
Bit rate : 39 b/s
Count of elements : 494
Stream size : 15.6 KiB (0%)
Title : Spanish (Latin America)
Language : Spanish
Default : No
Forced : No

Text #36
ID : 38
Format : UTF-8
Codec ID : S_TEXT/UTF8
Codec ID/Info : UTF-8 Plain Text
Duration : 53 min 26 s
Bit rate : 40 b/s
Count of elements : 493
Stream size : 15.7 KiB (0%)
Language : Swedish
Default : No
Forced : No

Text #37
ID : 39
Format : UTF-8
Codec ID : S_TEXT/UTF8
Codec ID/Info : UTF-8 Plain Text
Duration : 53 min 26 s
Bit rate : 124 b/s
Count of elements : 493
Stream size : 48.8 KiB (0%)
Language : Tamil
Default : No
Forced : No

Text #38
ID : 40
Format : UTF-8
Codec ID : S_TEXT/UTF8
Codec ID/Info : UTF-8 Plain Text
Duration : 53 min 26 s
Bit rate : 117 b/s
Count of elements : 493
Stream size : 45.8 KiB (0%)
Language : Telugu
Default : No
Forced : No

Text #39
ID : 41
Format : UTF-8
Codec ID : S_TEXT/UTF8
Codec ID/Info : UTF-8 Plain Text
Duration : 53 min 26 s
Bit rate : 99 b/s
Count of elements : 493
Stream size : 39.1 KiB (0%)
Language : Thai
Default : No
Forced : No

Text #40
ID : 42
Format : UTF-8
Codec ID : S_TEXT/UTF8
Codec ID/Info : UTF-8 Plain Text
Duration : 53 min 26 s
Bit rate : 58 b/s
Count of elements : 494
Stream size : 22.9 KiB (0%)
Language : Ukrainian
Default : No
Forced : No

Text #41
ID : 43
Format : UTF-8
Codec ID : S_TEXT/UTF8
Codec ID/Info : UTF-8 Plain Text
Duration : 53 min 26 s
Bit rate : 52 b/s
Count of elements : 494
Stream size : 20.4 KiB (0%)
Language : Vietnamese
Default : No
Forced : No

Menu
00:00:00.000 : :Chapter 01
00:00:52.544 : :Chapter 02





See S01E04


See S01E04


See S01E04


See S01E04


See S01E04

All episodes