Featured TV Shows


Servant S01E09

Posted By: Tavaz
1080p (FullHD) / WEBRip IMDb
Servant S01E09

Servant S01E09
WEBRip | MKV | 1920x960 | English | H264 @ 9963 kbps | E-AC-3 @ 768 kbps | 36 min 24 s | 2.73 GiB
Subtitles: Portuguese, German, Dutch, French, Spanish, English, Italian
Genre: Drama


A Philadelphia couple are in mourning after an unspeakable tragedy creates a rift in their marriage and opens the door for a mysterious force to enter their home.

9cea481e0e3b4a109d9dec98db230519.mkv (2.7 GB)



General
Unique ID : 92265319486166925896917987707716197027 (0x4569A77734B05BC061EAE56AB6B95AA3)
Complete name : ./9cea481e0e3b4a109d9dec98db230519.mkv
Format : Matroska
Format version : Version 4 / Version 2
File size : 2.73 GiB
Duration : 36 min 24 s
Overall bit rate : 10.7 Mb/s
Encoded date : UTC 2020-01-10 05:01:15
Writing application : mkvmerge v28.2.0 ('The Awakening') 64-bit
Writing library : libebml v1.3.6 + libmatroska v1.4.9

Video
ID : 1
Format : AVC
Format/Info : Advanced Video Codec
Format profile : High@L4
Format settings : CABAC / 4 Ref Frames
Format settings, CABAC : Yes
Format settings, RefFrames : 4 frames
Codec ID : V_MPEG4/ISO/AVC
Duration : 36 min 24 s
Bit rate : 9 963 kb/s
Width : 1 920 pixels
Height : 960 pixels
Display aspect ratio : 2.000
Frame rate mode : Constant
Frame rate : 23.976 (24000/1001) FPS
Color space : YUV
Chroma subsampling : 4:2:0
Bit depth : 8 bits
Scan type : Progressive
Bits/(Pixel*Frame) : 0.225
Stream size : 2.53 GiB (93%)
Language : English
Default : Yes
Forced : No
Color range : Limited
Color primaries : BT.709
Transfer characteristics : BT.709
Matrix coefficients : BT.709

Audio
ID : 2
Format : E-AC-3
Format/Info : Enhanced Audio Coding 3
Format profile : E-AC-3+Atmos / E-AC-3
Format settings, Endianness : Big
Codec ID : A_EAC3
Duration : 36 min 24 s
Bit rate mode : Constant
Bit rate : 768 kb/s
Channel(s) : 15 objects / 6 channels
Channel positions : 15 objects / Front: L C R, Side: L R, LFE
Sampling rate : 48.0 kHz
Frame rate : 187.500 FPS (256 SPF)
Compression mode : Lossy
Stream size : 200 MiB (7%)
Language : English
Service kind : Complete Main
Default : Yes
Forced : No

Text #1
ID : 3
Format : UTF-8
Codec ID : S_TEXT/UTF8
Codec ID/Info : UTF-8 Plain Text
Duration : 34 min 33 s
Bit rate : 34 b/s
Count of elements : 272
Stream size : 8.82 KiB (0%)
Title : English
Language : English
Default : No
Forced : No

Text #2
ID : 4
Format : UTF-8
Codec ID : S_TEXT/UTF8
Codec ID/Info : UTF-8 Plain Text
Duration : 35 min 3 s
Bit rate : 46 b/s
Count of elements : 415
Stream size : 12.0 KiB (0%)
Title : English SDH
Language : English
Default : No
Forced : No

Text #3
ID : 5
Format : UTF-8
Codec ID : S_TEXT/UTF8
Codec ID/Info : UTF-8 Plain Text
Duration : 35 min 33 s
Bit rate : 35 b/s
Count of elements : 244
Stream size : 9.22 KiB (0%)
Title : German
Language : German
Default : No
Forced : No

Text #4
ID : 6
Format : UTF-8
Codec ID : S_TEXT/UTF8
Codec ID/Info : UTF-8 Plain Text
Duration : 35 min 35 s
Bit rate : 33 b/s
Count of elements : 282
Stream size : 8.64 KiB (0%)
Title : Spanish
Language : Spanish
Default : No
Forced : No

Text #5
ID : 7
Format : UTF-8
Codec ID : S_TEXT/UTF8
Codec ID/Info : UTF-8 Plain Text
Duration : 35 min 27 s
Bit rate : 30 b/s
Count of elements : 249
Stream size : 7.80 KiB (0%)
Title : Canadian French
Language : French
Default : No
Forced : No

Text #6
ID : 8
Format : UTF-8
Codec ID : S_TEXT/UTF8
Codec ID/Info : UTF-8 Plain Text
Duration : 35 min 9 s
Bit rate : 30 b/s
Count of elements : 248
Stream size : 7.78 KiB (0%)
Title : French
Language : French
Default : No
Forced : No

Text #7
ID : 9
Format : UTF-8
Codec ID : S_TEXT/UTF8
Codec ID/Info : UTF-8 Plain Text
Duration : 35 min 36 s
Bit rate : 33 b/s
Count of elements : 275
Stream size : 8.71 KiB (0%)
Title : Italian
Language : Italian
Default : No
Forced : No

Text #8
ID : 10
Format : UTF-8
Codec ID : S_TEXT/UTF8
Codec ID/Info : UTF-8 Plain Text
Duration : 35 min 35 s
Bit rate : 29 b/s
Count of elements : 258
Stream size : 7.74 KiB (0%)
Title : Dutch
Language : Dutch
Default : No
Forced : No

Text #9
ID : 11
Format : UTF-8
Codec ID : S_TEXT/UTF8
Codec ID/Info : UTF-8 Plain Text
Duration : 35 min 35 s
Bit rate : 30 b/s
Count of elements : 279
Stream size : 7.90 KiB (0%)
Title : Brazilian Portuguese
Language : Portuguese
Default : No
Forced : No

Text #10
ID : 12
Format : UTF-8
Codec ID : S_TEXT/UTF8
Codec ID/Info : UTF-8 Plain Text
Duration : 35 min 35 s
Bit rate : 31 b/s
Count of elements : 279
Stream size : 8.21 KiB (0%)
Title : Portuguese
Language : Portuguese
Default : No
Forced : No





Servant S01E09


Servant S01E09


Servant S01E09


Servant S01E09


Servant S01E09

All episodes