Index
# A B C D E F G H I J K L M N O P Q R S T U V W Y Z
Tags
Language
Tags

Featured TV Shows


Sesame Street S49E09

Posted By: Tavaz
1080p (FullHD) / WEBRip IMDb
Sesame Street S49E09

Sesame Street S49E09
WEBRip | MKV | 1920x1080 | English | H264 @ 12445 kbps | E-AC-3 @ 224 kbps | 26 min 14 s | 2.32 GiB
Subtitles: English
Genre: Animation, Comedy, Family

Sesame Street is a long-running American children's television series created by Joan Ganz Cooney and Lloyd Morrisett. The program is known for its educational content, and creativity communicated through the use of Jim Henson's Muppets, animation, short films, humor, and cultural references. The series premiered on stations on November 10, 1969 to positive reviews, some controversy, and high ratings.

Sesame.Street.S49E09.Bath.Time.for.Blankey.1080p.AMZN.WEB-DL.DDP2.0.H.264-monkee.mkv (2.3 GB)



General
Unique ID : 253268658850317999609510462872917264013 (0xBE89C4F7C1A1D63AB6BDD9AB6786468D)
Complete name : ./Sesame.Street.S49E09.Bath.Time.for.Blankey.1080p.AMZN.WEB-DL.DDP2.0.H.264-monkee.mkv
Format : Matroska
Format version : Version 4 / Version 2
File size : 2.32 GiB
Duration : 26 min 14 s
Overall bit rate : 12.7 Mb/s
Encoded date : UTC 2019-01-12 15:58:53
Writing application : mkvmerge v13.0.0 ('The Juggler') 64bit
Writing library : libebml v1.3.4 + libmatroska v1.4.5

Video
ID : 1
Format : AVC
Format/Info : Advanced Video Codec
Format profile : High@L4
Format settings : CABAC / 4 Ref Frames
Format settings, CABAC : Yes
Format settings, RefFrames : 4 frames
Codec ID : V_MPEG4/ISO/AVC
Duration : 26 min 14 s
Bit rate : 12.4 Mb/s
Width : 1 920 pixels
Height : 1 080 pixels
Display aspect ratio : 16:9
Frame rate mode : Constant
Frame rate : 29.970 (30000/1001) FPS
Color space : YUV
Chroma subsampling : 4:2:0
Bit depth : 8 bits
Scan type : Progressive
Bits/(Pixel*Frame) : 0.200
Stream size : 2.28 GiB (98%)
Default : Yes
Forced : No
Color range : Limited
Color primaries : BT.709
Transfer characteristics : BT.709
Matrix coefficients : BT.709

Audio
ID : 2
Format : E-AC-3
Format/Info : Enhanced Audio Coding 3
Format settings, Endianness : Big
Codec ID : A_EAC3
Duration : 26 min 14 s
Bit rate mode : Constant
Bit rate : 224 kb/s
Channel(s) : 2 channels
Channel positions : Front: L R
Sampling rate : 48.0 kHz
Frame rate : 187.500 FPS (256 SPF)
Compression mode : Lossy
Stream size : 42.0 MiB (2%)
Language : English
Service kind : Complete Main
Default : Yes
Forced : No

Text #1
ID : 3
Format : UTF-8
Codec ID : S_TEXT/UTF8
Codec ID/Info : UTF-8 Plain Text
Duration : 25 min 49 s
Bit rate : 100 b/s
Count of elements : 650
Stream size : 19.0 KiB (0%)
Language : English
Default : No
Forced : No

Text #2
ID : 4
Format : UTF-8
Codec ID : S_TEXT/UTF8
Codec ID/Info : UTF-8 Plain Text
Duration : 25 min 51 s
Bit rate : 103 b/s
Count of elements : 676
Stream size : 19.5 KiB (0%)
Title : SDH
Language : English
Default : No
Forced : No





Sesame Street S49E09


Sesame Street S49E09


Sesame Street S49E09


Sesame Street S49E09


Sesame Street S49E09

All episodes